Filmbol Forum Film İndir BRRip XviD v Yıldız Savaşları 4: Yeni Bir Umut (Star Wars: Episode IV - A New Hope) - 1977 - TR - BRRip XviD | tt0076759
Mega linklerinin şikayet edilmemesi için global erişime kapatıp sadece yorum yapanlara açıyoruz. Bu linkleri gizleme işlemini mecburen yapıyoruz ve yorum yapmanızın siteye değil size faydası vardır. Teşekürler yazmayı çok görüp, Random/Spam mesajlar atarak Mega linklerini açmaya çalışan kullanıcılara önce süresiz ban, devam ederse IP ban atacağız.
Filmbol'da moderatör olmak ister misiniz? Bizimle iletişime geçmek için tıklayın!
Yıldız Savaşları 4: Yeni Bir Umut (Star Wars: Episode IV - A New Hope) - 1977 - TR - BRRip XviD | tt0076759
BroserBros
Yıldız Savaşları 4: Yeni Bir Umut (Star Wars: Episode IV - A New Hope) - 1977 - TR - BRRip XviD | tt0076759
11
2231
  • Derecelendirme: 0/5 - 0 oy
  • 1
  • 2
  • 3
  • 4
  • 5
Konuyu Okuyanlar:1 Ziyaretçi
Şuan Online!
Filmin Yayınlanma Tarihi: 1977 
WWW
Şuan Online!
BroserBros Kurucu Admin
*******
Admin



 Yıldız Savaşları 4: Yeni Bir Umut



Sinema tarihinin aynı zamanda hem en kült (cult), hem de aynı zamanda ticari başarısı en yüksek fantazmatik bilim kurgu serisi Star Wars’ın 1977 tarihli “Star Wars: Episode IV – A New Hope” bölümünde, Yıldız Kruvazörü Diplomatik görevle yolalan Korvet’i kıstıracaktır. Bu küçük gemide Senato üyesi olan ancak asilerle işbirliği içinde de bulunan, Eski Cumhuriyet’in savunucularından Prenses Leia da bulunmaktadır. İmparatorluk gemisinde ise hem Leia’yı hem de asi casusların kaçırmış olduğu ‘Ölüm Yıldızı’nın planlarını geri isteyen kötü Lord Vader yeralmaktadır. Sevimli droid R2-D2 ve ortağı C3-PO ise Tatooine gezegeninde, tesadüfler eseri Luke Skywalker isimli genç pilot adayına satılırlar. Droidlerin amacı yüklü olan mesajı Obi Wan Kenobi isimli yaşlı bir keşişe iletmektir. Macera hız kesmeden devam edecek, bilahare Lucas kuşaklar boyunca sinemaseverlerin gönlünde taht kuracaktır.

Yıldız Savaşları 4: Yeni Bir Umut (1977) (Star Wars: Episode IV - A New Hope) | tt0076759 Filmi Imdb'den 1,300,000 kişi tarafından oylandı ve 8,6 puan aldı. Bu film için editör puanı %90 olarak belirlendi. İyi Seyirler!

Teknik Detaylar

Kod :
General
Unique ID                                : 60126248313219907110402382965103261546 (0x2D3BE4EAC024B093F3AF65C4D37DF76A)
Complete name                            : /home/BroserBros/Desktop/4/Yıldız.Savaşları.Bölüm.4.Yeni.Bir.Umut.1977.BRRip.XViD.TR.Filmbol.avi
Format                                   : Matroska
Format version                           : Version 4
File size                                : 688 MiB
Duration                                 : 2 h 4 min
Overall bit rate                         : 771 kb/s
Movie name                               : Yıldız Savaşları Bölüm 4: Yeni Bir Umut - Star Wars Episode 4: A New Hope - 1977 | Filmbol.org
Encoded date                             : UTC 2021-05-03 19:17:01
Writing application                      : mkvmerge v53.0.0 ('Fool's Gold') 64-bit
Writing library                          : libebml v1.4.1 + libmatroska v1.6.2
FileExtension_Invalid                    : mkv mk3d mka mks

Video
ID                                       : 1
Format                                   : MPEG-4 Visual
Format profile                           : Advanced [email protected]
Format settings                          : BVOP2 / Custom Matrix
Format settings, BVOP                    : 2
Format settings, QPel                    : No
Format settings, GMC                     : No warppoints
Format settings, Matrix                  : Custom
Muxing mode                              : Packed bitstream
Codec ID                                 : V_MS/VFW/FOURCC / XVID
Codec ID/Hint                            : XviD
Duration                                 : 2 h 4 min
Bit rate                                 : 674 kb/s
Width                                    : 672 pixels
Height                                   : 288 pixels
Display aspect ratio                     : 2.35:1
Frame rate mode                          : Constant
Frame rate                               : 23.976 (23976/1000) FPS
Color space                              : YUV
Chroma subsampling                       : 4:2:0
Bit depth                                : 8 bits
Scan type                                : Progressive
Compression mode                         : Lossy
Bits/(Pixel*Frame)                       : 0.145
Stream size                              : 601 MiB (87%)
Title                                    : Yıldız Savaşları Bölüm 4: Yeni Bir Umut - Star Wars Episode 4: A New Hope - 1977 | Filmbol.org
Writing library                          : XviD 1.1.2 (UTC 2006-11-01)
Default                                  : Yes
Forced                                   : No

Audio
ID                                       : 2
Format                                   : MPEG Audio
Format version                           : Version 1
Format profile                           : Layer 3
Format settings                          : Joint stereo
Codec ID                                 : A_MPEG/L3
Codec ID/Hint                            : MP3
Duration                                 : 2 h 4 min
Bit rate mode                            : Constant
Bit rate                                 : 96.0 kb/s
Channel(s)                               : 2 channels
Sampling rate                            : 32.0 kHz
Frame rate                               : 27.778 FPS (1152 SPF)
Compression mode                         : Lossy
Stream size                              : 85.7 MiB (12%)
Title                                    : Yıldız Savaşları Bölüm 4: Yeni Bir Umut - Star Wars Episode 4: A New Hope - 1977 | Filmbol.org
Default                                  : Yes
Forced                                   : No

Film Detayları


 Yıldız Savaşları 4: Yeni Bir Umut

 Yıldız Savaşları 4: Yeni Bir Umut

 Yıldız Savaşları 4: Yeni Bir Umut


Film Fragmanı


Film Detayları


Uptobox ile indir

1Fichier ile indir

1Fichier'den İndiremiyor musun? Tıklayın!


Mega linki şuan da gizli. Kullanıma açmak için konuya yorum yapın ve ardından sayfayı yenileyin.

Mega


Bunun için üzgünüz ancak, bu linke sadece premium üyeler erişebilir.

Filmbol Cloud





Şuan Online!
Şuan Online!
BroserBros Kurucu Admin
*******
Admin

16.12.2019 Güncelleme Notu:

Linkler yenilendi. Kırık linkler kaldırıldı ve Genel Konu Düzenlemesi Yapıldı
Şuan Offine!
Şuan Offine!
Cansekul Yeni Üye
*
Üye

  • Konular0
  • Mesajlar2
  • Rep puanı 0
Mükemmel
Şuan Offine!
Şuan Offine!
AliSavci Uzman Üye
**
Uzman Üye

  • Konular0
  • Mesajlar15
  • Rep puanı 0
Teşekkürler
Şuan Offine!
Şuan Offine!
karabudak Uzman Üye
**
Uzman Üye

  • Konular0
  • Mesajlar9
  • Rep puanı 0
teşekkürler.

K A R A B U D A K


1pv17Y.png



Şuan Offine!
Şuan Offine!
Agadjanof Yeni Üye
*
Üye

  • Konular0
  • Mesajlar3
  • Rep puanı 0
cok guzel film
Şuan Offine!
Şuan Offine!
0ndu Uzman Üye
**
Uzman Üye

  • Konular0
  • Mesajlar6
  • Rep puanı 0
tytyty
Şuan Offine!
Şuan Offine!
Seres Yeni Üye
*
Üye

  • Konular0
  • Mesajlar1
  • Rep puanı 0
Teşekkürler
Şuan Offine!
Şuan Offine!
mertdemirefsanesi Uzman Üye
**
Uzman Üye

  • Konular0
  • Mesajlar10
  • Rep puanı 0
harika bir seri herkesin izlemesi lazım
Şuan Offine!
Şuan Offine!
efeee71Rblx Yeni Üye
*
Üye

  • Konular0
  • Mesajlar5
  • Rep puanı 0
E F S A N E


Konu ile Alakalı Benzer Konular
Konular Yazar Yorumlar Okunma Son Yorum
Filmin Yayınlanma Tarihi: 2018
Han Solo: Bir Star Wars Hikâyesi (Solo: A Star Wars Story) - 2018 - TR - BRRip XviD | tt3778644 BroserBros 2 438 1 saat önce
Son Yorum: Furkan61
Filmin Yayınlanma Tarihi: 2015
Yıldız Savaşları 7: Güç Uyanıyor (Star Wars: Episode VII - The Force Awakens) - 2015 - TR - BRRip XviD | tt2488496 BroserBros 8 2,184 1 saat önce
Son Yorum: Furkan61
Filmin Yayınlanma Tarihi: 1983
Yıldız Savaşları 6: Jedi'ın Dönüşü (Star Wars: Episode VI - Return of the Jedi) - 1983 - TR - BRRip XviD | tt0086190 BroserBros 8 1,785 1 saat önce
Son Yorum: Furkan61
Filmin Yayınlanma Tarihi: 1980
Yıldız Savaşları 5: İmparator (Star Wars: Episode V - The Empire Strikes Back) - 1980 - TR - BRRip XviD | tt0080684 BroserBros 6 1,779 1 saat önce
Son Yorum: Furkan61
Filmin Yayınlanma Tarihi: 2011
Transformers: Ay'ın Karanlık Yüzü (Transformers: Dark of the Moon) - 2011 - TR - BRRip XviD | tt1399103 TheSteeL 2 14 8 saat önce
Son Yorum: TheSteeL

Hızlı Menü: