Filmbol Forum Film İndir 720P v Yıldız Savaşları 4: Yeni Bir Umut (Star Wars: Episode IV - A New Hope) - 1977 - TR+ORG - 720P | tt0076759
Mega linklerinin şikayet edilmemesi için global erişime kapatıp sadece yorum yapanlara açıyoruz. Bu linkleri gizleme işlemini mecburen yapıyoruz ve yorum yapmanızın siteye değil size faydası vardır. Teşekürler yazmayı çok görüp, Random/Spam mesajlar atarak Mega linklerini açmaya çalışan kullanıcılara önce süresiz ban, devam ederse IP ban atacağız.
Filmbol'da moderatör olmak ister misiniz? Bizimle iletişime geçmek için tıklayın!
Yıldız Savaşları 4: Yeni Bir Umut (Star Wars: Episode IV - A New Hope) - 1977 - TR+ORG - 720P | tt0076759
BroserBros
Yıldız Savaşları 4: Yeni Bir Umut (Star Wars: Episode IV - A New Hope) - 1977 - TR+ORG - 720P | tt0076759
17
3338
  • Derecelendirme: 0/5 - 0 oy
  • 1
  • 2
  • 3
  • 4
  • 5
Konuyu Okuyanlar:1 Ziyaretçi
Şuan Online!
Filmin Yayınlanma Tarihi: 1977 
WWW
Şuan Online!
BroserBros Kurucu Admin
*******
Admin



 Yıldız Savaşları 4: Yeni Bir Umut



Sinema tarihinin aynı zamanda hem en kült (cult), hem de aynı zamanda ticari başarısı en yüksek fantazmatik bilim kurgu serisi Star Wars’ın 1977 tarihli “Star Wars: Episode IV – A New Hope” bölümünde, Yıldız Kruvazörü Diplomatik görevle yolalan Korvet’i kıstıracaktır. Bu küçük gemide Senato üyesi olan ancak asilerle işbirliği içinde de bulunan, Eski Cumhuriyet’in savunucularından Prenses Leia da bulunmaktadır. İmparatorluk gemisinde ise hem Leia’yı hem de asi casusların kaçırmış olduğu ‘Ölüm Yıldızı’nın planlarını geri isteyen kötü Lord Vader yeralmaktadır. Sevimli droid R2-D2 ve ortağı C3-PO ise Tatooine gezegeninde, tesadüfler eseri Luke Skywalker isimli genç pilot adayına satılırlar. Droidlerin amacı yüklü olan mesajı Obi Wan Kenobi isimli yaşlı bir keşişe iletmektir. Macera hız kesmeden devam edecek, bilahare Lucas kuşaklar boyunca sinemaseverlerin gönlünde taht kuracaktır.

Yıldız Savaşları 4: Yeni Bir Umut (1977) (Star Wars: Episode IV - A New Hope) | tt0076759 Filmi Imdb'den 1,300,000 kişi tarafından oylandı ve 8,6 puan aldı. Bu film için editör puanı %90 olarak belirlendi. İyi Seyirler!

Teknik Detaylar

Kod :
General
Unique ID                                : 89238703629453590803837955211313546262 (0x4322BFC86A0183E6FEAE93A604740416)
Complete name                            : /home/BroserBros/Desktop/4/Yıldız.Savaşları.Bölüm.4.Yeni.Bir.Umut.1977.720p.BluRay.x264.TR.ENG.Filmbol.mkv
Format                                   : Matroska
Format version                           : Version 4
File size                                : 1.20 GiB
Duration                                 : 2 h 4 min
Overall bit rate                         : 1 382 kb/s
Movie name                               : Yıldız Savaşları Bölüm 4: Yeni Bir Umut - Star Wars Episode 4: A New Hope - 1977 | Filmbol.org
Encoded date                             : UTC 2021-05-03 15:37:43
Writing application                      : mkvmerge v53.0.0 ('Fool's Gold') 64-bit
Writing library                          : libebml v1.4.1 + libmatroska v1.6.2

Video
ID                                       : 1
Format                                   : AVC
Format/Info                              : Advanced Video Codec
Format profile                           : [email protected]
Format settings                          : CABAC / 4 Ref Frames
Format settings, CABAC                   : Yes
Format settings, Reference frames        : 4 frames
Codec ID                                 : V_MPEG4/ISO/AVC
Duration                                 : 2 h 4 min
Bit rate                                 : 900 kb/s
Width                                    : 1 280 pixels
Height                                   : 544 pixels
Display aspect ratio                     : 2.35:1
Frame rate mode                          : Constant
Frame rate                               : 23.976 (24000/1001) FPS
Color space                              : YUV
Chroma subsampling                       : 4:2:0
Bit depth                                : 8 bits
Scan type                                : Progressive
Bits/(Pixel*Frame)                       : 0.054
Stream size                              : 803 MiB (65%)
Title                                    : 720P - Filmbol.org
Writing library                          : x264 core 148
Encoding settings                        : cabac=1 / ref=4 / deblock=1:-1:-1 / analyse=0x3:0x133 / me=umh / subme=9 / psy=1 / psy_rd=1.00:0.15 / mixed_ref=1 / me_range=24 / chroma_me=1 / trellis=2 / 8x8dct=1 / cqm=0 / deadzone=21,11 / fast_pskip=0 / chroma_qp_offset=-3 / threads=12 / lookahead_threads=1 / sliced_threads=0 / nr=0 / decimate=1 / interlaced=0 / bluray_compat=0 / constrained_intra=0 / bframes=3 / b_pyramid=2 / b_adapt=2 / b_bias=0 / direct=3 / weightb=1 / open_gop=0 / weightp=2 / keyint=250 / keyint_min=23 / scenecut=40 / intra_refresh=0 / rc_lookahead=60 / rc=2pass / mbtree=1 / bitrate=900 / ratetol=1.0 / qcomp=0.60 / qpmin=0 / qpmax=69 / qpstep=4 / cplxblur=20.0 / qblur=0.5 / vbv_maxrate=31250 / vbv_bufsize=31250 / nal_hrd=none / filler=0 / ip_ratio=1.40 / aq=1:1.00
Default                                  : Yes
Forced                                   : No

Audio #1
ID                                       : 2
Format                                   : AC-3
Format/Info                              : Audio Coding 3
Commercial name                          : Dolby Digital
Codec ID                                 : A_AC3
Duration                                 : 2 h 4 min
Bit rate mode                            : Constant
Bit rate                                 : 384 kb/s
Channel(s)                               : 6 channels
Channel layout                           : L R C LFE Ls Rs
Sampling rate                            : 48.0 kHz
Frame rate                               : 31.250 FPS (1536 SPF)
Compression mode                         : Lossy
Stream size                              : 343 MiB (28%)
Title                                    : Türkçe - Filmbol.org
Language                                 : Turkish
Service kind                             : Complete Main
Default                                  : Yes
Forced                                   : Yes

Audio #2
ID                                       : 3
Format                                   : AAC LC
Format/Info                              : Advanced Audio Codec Low Complexity
Codec ID                                 : A_AAC-2
Duration                                 : 2 h 4 min
Bit rate                                 : 96.0 kb/s
Channel(s)                               : 2 channels
Channel layout                           : L R
Sampling rate                            : 48.0 kHz
Frame rate                               : 46.875 FPS (1024 SPF)
Compression mode                         : Lossy
Stream size                              : 85.6 MiB (7%)
Title                                    : Orijinal Dil - Filmbol.org
Language                                 : English
Default                                  : No
Forced                                   : No

Text #1
ID                                       : 4
Format                                   : UTF-8
Codec ID                                 : S_TEXT/UTF8
Codec ID/Info                            : UTF-8 Plain Text
Duration                                 : 1 h 14 min
Bit rate                                 : 2 b/s
Count of elements                        : 31
Stream size                              : 1.10 KiB (0%)
Title                                    : Türkçe Forced - Filmbol.org
Language                                 : Turkish
Default                                  : Yes
Forced                                   : Yes

Text #2
ID                                       : 5
Format                                   : UTF-8
Codec ID                                 : S_TEXT/UTF8
Codec ID/Info                            : UTF-8 Plain Text
Duration                                 : 2 h 4 min
Bit rate                                 : 54 b/s
Count of elements                        : 1312
Stream size                              : 49.4 KiB (0%)
Title                                    : Türkçe - Filmbol.org
Language                                 : Turkish
Default                                  : No
Forced                                   : No

Film Detayları


 Yıldız Savaşları 4: Yeni Bir Umut

 Yıldız Savaşları 4: Yeni Bir Umut

 Yıldız Savaşları 4: Yeni Bir Umut


Film Fragmanı


Film Detayları

Uptobox ile indir

1Fichier ile indir

1Fichier'den İndiremiyor musun? Tıklayın!


Mega linki şuan da gizli. Kullanıma açmak için konuya yorum yapın ve ardından sayfayı yenileyin.

Mega


Bunun için üzgünüz ancak, bu linke sadece premium üyeler erişebilir.

Filmbol Cloud





Şuan Offine!
Şuan Offine!
Buzmavisi Yeni Üye
*
Üye

  • Konular0
  • Mesajlar4
  • Rep puanı 0
Teşekkürler
Şuan Online!
Şuan Online!
BroserBros Kurucu Admin
*******
Admin

16.12.2019 Güncelleme Notu:

Linkler yenilendi. Kırık linkler kaldırıldı ve Genel Konu Düzenlemesi Yapıldı
Şuan Offine!
Şuan Offine!
AliSavci Uzman Üye
**
Uzman Üye

  • Konular0
  • Mesajlar15
  • Rep puanı 0
Teşekkürler
Şuan Offine!
Şuan Offine!
Dragonborn Yeni Üye
*
Üye

  • Konular0
  • Mesajlar3
  • Rep puanı 0
Teşekkürler
Şuan Offine!
Şuan Offine!
asdas Uzman Üye
**
Uzman Üye

  • Konular0
  • Mesajlar6
  • Rep puanı 0
harika
Şuan Offine!
Şuan Offine!
qaaNz Uzman Üye
**
Uzman Üye

  • Konular0
  • Mesajlar9
  • Rep puanı 0
teşekkürler
Şuan Online!
Şuan Online!
algül Süper Üye
***
Super Üye

  • Konular0
  • Mesajlar38
  • Rep puanı 0
çok sağol...
Şuan Offine!
Şuan Offine!
Endless Uzman Üye
**
Uzman Üye

  • Konular0
  • Mesajlar6
  • Rep puanı 0
sa ds a dsa
Şuan Offine!
Şuan Offine!
imral_sahin Yeni Üye
*
Üye

  • Konular0
  • Mesajlar1
  • Rep puanı 0
Teşekkürler


Konu ile Alakalı Benzer Konular
Konular Yazar Yorumlar Okunma Son Yorum
Filmin Yayınlanma Tarihi: 2015
Yenilmezler: Ultron Çağı (Avengers: Age of Ultron) - 2015 - TR+ORG - 720P | tt2395427 BroserBros 8 5,989 27 dakika önce
Son Yorum: denizyesilova00
Filmin Yayınlanma Tarihi: 2017
Galaksinin Koruyucuları 2 (Guardians of the Galaxy Vol. 2) - 2017 - TR+ORG - 720P | tt3896198 BroserBros 3 453 28 dakika önce
Son Yorum: denizyesilova00
Filmin Yayınlanma Tarihi: 2014
Galaksinin Koruyucuları (Guardians of the Galaxy) - 2014 - TR+ORG - 720P | tt2015381 BroserBros 3 448 29 dakika önce
Son Yorum: denizyesilova00
Filmin Yayınlanma Tarihi: 2011
Transformers: Ay'ın Karanlık Yüzü (Transformers: Dark of the Moon) - 2011 - TR+ORG - 720P | tt1399103 TheSteeL 0 6 10 saat önce
Son Yorum: TheSteeL
Filmin Yayınlanma Tarihi: 2021
Her Şey Yok Olur (Things Heard & Seen) - 2021 - TR+ORG - 720P | tt10962368 TheSteeL 0 9 10 saat önce
Son Yorum: TheSteeL

Hızlı Menü: