Filmbol Forum Film İndir BRRip XviD v Yıldız Savaşları 3: Sith'in İntikamı (Star Wars: Episode III - Revenge of the Sith) - 2005 - TR - BRRip XviD | tt0121766
Mega linklerinin şikayet edilmemesi için global erişime kapatıp sadece yorum yapanlara açıyoruz. Bu linkleri gizleme işlemini mecburen yapıyoruz ve yorum yapmanızın siteye değil size faydası vardır. Teşekürler yazmayı çok görüp, Random/Spam mesajlar atarak Mega linklerini açmaya çalışan kullanıcılara önce süresiz ban, devam ederse IP ban atacağız.
Filmbol'da moderatör olmak ister misiniz? Bizimle iletişime geçmek için tıklayın!
Yıldız Savaşları 3: Sith'in İntikamı (Star Wars: Episode III - Revenge of the Sith) - 2005 - TR - BRRip XviD | tt0121766
BroserBros
Yıldız Savaşları 3: Sith'in İntikamı (Star Wars: Episode III - Revenge of the Sith) - 2005 - TR - BRRip XviD | tt0121766
7
2004
  • Derecelendirme: 4/5 - 1 oy
  • 1
  • 2
  • 3
  • 4
  • 5
Konuyu Okuyanlar:1 Ziyaretçi
Şuan Online!
Filmin Yayınlanma Tarihi: 2005 
WWW
Şuan Online!
BroserBros Kurucu Admin
*******
Admin



 Yıldız Savaşları 3: Sith'in İntikamı



Kahraman ve bilge Jedi’ler fazlasıyla uzayan savaştan dolayı oldukça yorgundur. Asıl sorun ise savaşı bahane göstererek demokrasiyi gözardı eden şansölyenin gizli planlarıdır. Artık klon savaşlarındaki son dönemeçtir ve acımasız komutan Grievious başkentte tozu dumana katmaktadır. Palpatine’i rehin alarak kaçmaya koyulan Grevious, Obi-Wan Kenobi ve genç Anakin Skywalker tarafından takip edilecektir.
Öte yandan Anakin Skywalker’ın tek derdi bu durum da değildir. Anakin, büyük Jedi ustalarından beklediği ilgi ve saygıyı göremediğini düşünüp hırslanmaktadır.

Yıldız Savaşları 3: Sith'in İntikamı (2005) (Star Wars: Episode III - Revenge of the Sith) | tt0121766 Filmi Imdb'den 725,000 kişi tarafından oylandı ve 7,5 puan aldı. Bu film için editör puanı %85 olarak belirlendi. İyi Seyirler!

Teknik Detaylar

Kod :
General
Unique ID                                : 185007855185217513273034673780591991373 (0x8B2F3781D49E0F5A15B1A95A28789A4D)
Complete name                            : /home/BroserBros/Desktop/3/Yıldız.Savaşları.Bölüm.3.Sithin.İntikamı.2005.BRRip.XviD.TR.Filmbol.avi
Format                                   : Matroska
Format version                           : Version 4
File size                                : 690 MiB
Duration                                 : 2 h 20 min
Overall bit rate                         : 688 kb/s
Movie name                               : Yıldız Savaşları Bölüm 3: Sith'in İntikamı - Star Wars Episode 3: Revenge of the Sith - 2005 | Filmbol.org
Encoded date                             : UTC 2021-05-03 15:27:35
Writing application                      : mkvmerge v53.0.0 ('Fool's Gold') 64-bit
Writing library                          : libebml v1.4.1 + libmatroska v1.6.2
FileExtension_Invalid                    : mkv mk3d mka mks

Video
ID                                       : 1
Format                                   : MPEG-4 Visual
Format profile                           : Advanced [email protected]
Format settings                          : BVOP2 / Custom Matrix
Format settings, BVOP                    : 2
Format settings, QPel                    : No
Format settings, GMC                     : No warppoints
Format settings, Matrix                  : Custom
Muxing mode                              : Packed bitstream
Codec ID                                 : V_MS/VFW/FOURCC / XVID
Codec ID/Hint                            : XviD
Duration                                 : 2 h 20 min
Bit rate                                 : 623 kb/s
Width                                    : 672 pixels
Height                                   : 288 pixels
Display aspect ratio                     : 2.35:1
Frame rate mode                          : Constant
Frame rate                               : 23.976 (23976/1000) FPS
Color space                              : YUV
Chroma subsampling                       : 4:2:0
Bit depth                                : 8 bits
Scan type                                : Progressive
Compression mode                         : Lossy
Bits/(Pixel*Frame)                       : 0.134
Stream size                              : 624 MiB (90%)
Title                                    : Yıldız Savaşları Bölüm 3: Sith'in İntikamı - Star Wars Episode 3: Revenge of the Sith - 2005 | Filmbol.org
Writing library                          : XviD 1.1.2 (UTC 2006-11-01)
Default                                  : Yes
Forced                                   : No

Audio
ID                                       : 2
Format                                   : MPEG Audio
Format version                           : Version 2
Format profile                           : Layer 3
Format settings                          : Joint stereo / MS Stereo
Codec ID                                 : A_MPEG/L3
Codec ID/Hint                            : MP3
Duration                                 : 2 h 20 min
Bit rate mode                            : Constant
Bit rate                                 : 64.0 kb/s
Channel(s)                               : 2 channels
Sampling rate                            : 22.05 kHz
Frame rate                               : 38.281 FPS (576 SPF)
Compression mode                         : Lossy
Stream size                              : 64.1 MiB (9%)
Title                                    : Yıldız Savaşları Bölüm 3: Sith'in İntikamı - Star Wars Episode 3: Revenge of the Sith - 2005 | Filmbol.org
Writing library                          : LAME3.90.3
Default                                  : Yes
Forced                                   : No

Film Detayları


 Yıldız Savaşları 3: Sith'in İntikamı

 Yıldız Savaşları 3: Sith'in İntikamı

 Yıldız Savaşları 3: Sith'in İntikamı


Film Fragmanı


Film Detayları


Uptobox ile indir

1Fichier ile indir

1Fichier'den İndiremiyor musun? Tıklayın!


Mega linki şuan da gizli. Kullanıma açmak için konuya yorum yapın ve ardından sayfayı yenileyin.

Mega


Bunun için üzgünüz ancak, bu linke sadece premium üyeler erişebilir.

Filmbol Cloud





Şuan Online!
Şuan Online!
BroserBros Kurucu Admin
*******
Admin

16.12.2019 Güncelleme Notu:

Linkler yenilendi. Kırık linkler kaldırıldı ve Genel Konu Düzenlemesi Yapıldı
Şuan Offine!
Şuan Offine!
0ndu Uzman Üye
**
Uzman Üye

  • Konular0
  • Mesajlar6
  • Rep puanı 0
adamsın adminnnn
Şuan Offine!
Şuan Offine!
karabudak Uzman Üye
**
Uzman Üye

  • Konular0
  • Mesajlar9
  • Rep puanı 0
teşekkürler.

K A R A B U D A K


1pv17Y.png



Şuan Offine!
Şuan Offine!
efeee71Rblx Yeni Üye
*
Üye

  • Konular0
  • Mesajlar5
  • Rep puanı 0
Ne diyiyim  Wink
Şuan Offine!
Şuan Offine!
w0tmasta Uzman Üye
**
Uzman Üye

  • Konular0
  • Mesajlar9
  • Rep puanı 0
Filmleri .avi olarak da yüklemeniz çok iyi rahatça tvde oynatabiliyorım
Şuan Online!
Şuan Online!
BroserBros Kurucu Admin
*******
Admin

05.05.2021 Yönetici Notu:

Kırık linkler kontrol edildi, kaldırıldı ve yenilendi. Tüm linkler tamamen çalışır durumda.
Şuan Online!
Şuan Online!
Furkan61 Süper Üye
***
Super Üye

  • Konular0
  • Mesajlar220
  • Rep puanı 1
güzel


Konu ile Alakalı Benzer Konular
Konular Yazar Yorumlar Okunma Son Yorum
Filmin Yayınlanma Tarihi: 2018
Han Solo: Bir Star Wars Hikâyesi (Solo: A Star Wars Story) - 2018 - TR - BRRip XviD | tt3778644 BroserBros 2 438 1 saat önce
Son Yorum: Furkan61
Filmin Yayınlanma Tarihi: 2015
Yıldız Savaşları 7: Güç Uyanıyor (Star Wars: Episode VII - The Force Awakens) - 2015 - TR - BRRip XviD | tt2488496 BroserBros 8 2,184 1 saat önce
Son Yorum: Furkan61
Filmin Yayınlanma Tarihi: 1983
Yıldız Savaşları 6: Jedi'ın Dönüşü (Star Wars: Episode VI - Return of the Jedi) - 1983 - TR - BRRip XviD | tt0086190 BroserBros 8 1,785 1 saat önce
Son Yorum: Furkan61
Filmin Yayınlanma Tarihi: 1980
Yıldız Savaşları 5: İmparator (Star Wars: Episode V - The Empire Strikes Back) - 1980 - TR - BRRip XviD | tt0080684 BroserBros 6 1,779 1 saat önce
Son Yorum: Furkan61
Filmin Yayınlanma Tarihi: 2011
Transformers: Ay'ın Karanlık Yüzü (Transformers: Dark of the Moon) - 2011 - TR - BRRip XviD | tt1399103 TheSteeL 2 14 8 saat önce
Son Yorum: TheSteeL

Hızlı Menü: