Filmbol Forum Film İndir 1080P v Yıldız Savaşları 3: Sith'in İntikamı (Star Wars: Episode III - Revenge of the Sith) - 2005 - TR+ORG - 1080P | tt0121766
Mega linklerinin şikayet edilmemesi için global erişime kapatıp sadece yorum yapanlara açıyoruz. Bu linkleri gizleme işlemini mecburen yapıyoruz ve yorum yapmanızın siteye değil size faydası vardır. Teşekürler yazmayı çok görüp, Random/Spam mesajlar atarak Mega linklerini açmaya çalışan kullanıcılara önce süresiz ban, devam ederse IP ban atacağız.
Filmbol'da moderatör olmak ister misiniz? Bizimle iletişime geçmek için tıklayın!
Yıldız Savaşları 3: Sith'in İntikamı (Star Wars: Episode III - Revenge of the Sith) - 2005 - TR+ORG - 1080P | tt0121766
BroserBros
Yıldız Savaşları 3: Sith'in İntikamı (Star Wars: Episode III - Revenge of the Sith) - 2005 - TR+ORG - 1080P | tt0121766
25
4312
  • Derecelendirme: 0/5 - 0 oy
  • 1
  • 2
  • 3
  • 4
  • 5
Konuyu Okuyanlar:1 Ziyaretçi
Şuan Online!
Filmin Yayınlanma Tarihi: 2005 
WWW
Şuan Online!
BroserBros Kurucu Admin
*******
Admin



 Yıldız Savaşları 3: Sith'in İntikamı



Kahraman ve bilge Jedi’ler fazlasıyla uzayan savaştan dolayı oldukça yorgundur. Asıl sorun ise savaşı bahane göstererek demokrasiyi gözardı eden şansölyenin gizli planlarıdır. Artık klon savaşlarındaki son dönemeçtir ve acımasız komutan Grievious başkentte tozu dumana katmaktadır. Palpatine’i rehin alarak kaçmaya koyulan Grevious, Obi-Wan Kenobi ve genç Anakin Skywalker tarafından takip edilecektir.
Öte yandan Anakin Skywalker’ın tek derdi bu durum da değildir. Anakin, büyük Jedi ustalarından beklediği ilgi ve saygıyı göremediğini düşünüp hırslanmaktadır.

Yıldız Savaşları 3: Sith'in İntikamı (2005) (Star Wars: Episode III - Revenge of the Sith) | tt0121766 Filmi Imdb'den 725,000 kişi tarafından oylandı ve 7,5 puan aldı. Bu film için editör puanı %85 olarak belirlendi. İyi Seyirler!

Teknik Detaylar

Kod :
General
Unique ID                                : 272164394797550095226671171253424648564 (0xCCC0F4AD95318BDAD62243CF017C7174)
Complete name                            : /home/BroserBros/Desktop/3/Yıldız.Savaşları.Bölüm.3.Sithin.İntikamı.2005.1080p.BluRay.x264.TR.ENG.Filmbol.mkv
Format                                   : Matroska
Format version                           : Version 4
File size                                : 2.35 GiB
Duration                                 : 2 h 20 min
Overall bit rate                         : 2 404 kb/s
Movie name                               : Yıldız Savaşları Bölüm 3: Sith'in İntikamı - Star Wars Episode 3: Revenge of the Sith - 2005 | Filmbol.org
Encoded date                             : UTC 2021-05-03 14:39:06
Writing application                      : mkvmerge v53.0.0 ('Fool's Gold') 64-bit
Writing library                          : libebml v1.4.1 + libmatroska v1.6.2

Video
ID                                       : 1
Format                                   : AVC
Format/Info                              : Advanced Video Codec
Format profile                           : [email protected]
Format settings                          : CABAC / 4 Ref Frames
Format settings, CABAC                   : Yes
Format settings, Reference frames        : 4 frames
Codec ID                                 : V_MPEG4/ISO/AVC
Duration                                 : 2 h 20 min
Bit rate                                 : 1 847 kb/s
Width                                    : 1 920 pixels
Height                                   : 816 pixels
Display aspect ratio                     : 2.35:1
Frame rate mode                          : Constant
Frame rate                               : 23.976 (24000/1001) FPS
Color space                              : YUV
Chroma subsampling                       : 4:2:0
Bit depth                                : 8 bits
Scan type                                : Progressive
Bits/(Pixel*Frame)                       : 0.049
Stream size                              : 1.81 GiB (77%)
Title                                    : 1080P - Filmbol.org
Writing library                          : x264 core 129 r2245 bc13772
Encoding settings                        : cabac=1 / ref=5 / deblock=1:0:0 / analyse=0x3:0x133 / me=umh / subme=9 / psy=1 / psy_rd=1.00:0.00 / mixed_ref=1 / me_range=16 / chroma_me=1 / trellis=2 / 8x8dct=1 / cqm=0 / deadzone=21,11 / fast_pskip=1 / chroma_qp_offset=-2 / threads=12 / lookahead_threads=2 / sliced_threads=0 / nr=0 / decimate=1 / interlaced=0 / bluray_compat=0 / constrained_intra=0 / bframes=8 / b_pyramid=1 / b_adapt=2 / b_bias=2 / direct=3 / weightb=1 / open_gop=0 / weightp=2 / keyint=240 / keyint_min=23 / scenecut=40 / intra_refresh=0 / rc_lookahead=60 / rc=2pass / mbtree=1 / bitrate=1847 / ratetol=1.0 / qcomp=0.60 / qpmin=10 / qpmax=51 / qpstep=4 / cplxblur=20.0 / qblur=0.5 / ip_ratio=1.40 / aq=1:1.00
Default                                  : Yes
Forced                                   : No

Audio #1
ID                                       : 2
Format                                   : AC-3
Format/Info                              : Audio Coding 3
Commercial name                          : Dolby Digital
Codec ID                                 : A_AC3
Duration                                 : 2 h 20 min
Bit rate mode                            : Constant
Bit rate                                 : 448 kb/s
Channel(s)                               : 6 channels
Channel layout                           : L R C LFE Ls Rs
Sampling rate                            : 48.0 kHz
Frame rate                               : 31.250 FPS (1536 SPF)
Compression mode                         : Lossy
Delay relative to video                  : -125 ms
Stream size                              : 449 MiB (19%)
Title                                    : Türkçe - Filmbol.org
Language                                 : Turkish
Service kind                             : Complete Main
Default                                  : Yes
Forced                                   : No

Audio #2
ID                                       : 3
Format                                   : AAC LC
Format/Info                              : Advanced Audio Codec Low Complexity
Codec ID                                 : A_AAC-2
Duration                                 : 2 h 20 min
Bit rate                                 : 92.0 kb/s
Channel(s)                               : 2 channels
Channel layout                           : L R
Sampling rate                            : 48.0 kHz
Frame rate                               : 46.875 FPS (1024 SPF)
Compression mode                         : Lossy
Delay relative to video                  : -125 ms
Stream size                              : 92.2 MiB (4%)
Title                                    : Orjinal Dil - Filmbol.org
Language                                 : English
Default                                  : No
Forced                                   : No

Text
ID                                       : 4
Format                                   : PGS
Muxing mode                              : zlib
Codec ID                                 : S_HDMV/PGS
Codec ID/Info                            : Picture based subtitle format used on BDs/HD-DVDs
Duration                                 : 2 h 20 min
Bit rate                                 : 35.0 kb/s
Count of elements                        : 2230
Stream size                              : 35.0 MiB (1%)
Title                                    : Türkçe - Filmbol.org
Language                                 : Turkish
Default                                  : No
Forced                                   : No

Film Detayları


 Yıldız Savaşları 3: Sith'in İntikamı

 Yıldız Savaşları 3: Sith'in İntikamı

 Yıldız Savaşları 3: Sith'in İntikamı


Film Fragmanı


Film Detayları

Uptobox ile indir

1Fichier ile indir

1Fichier'den İndiremiyor musun? Tıklayın!


Mega linki şuan da gizli. Kullanıma açmak için konuya yorum yapın ve ardından sayfayı yenileyin.

Mega


Bunun için üzgünüz ancak, bu linke sadece premium üyeler erişebilir.

Filmbol Cloud





Şuan Offine!
Şuan Offine!
kazim1907 Yeni Üye
*
Üye

  • Konular0
  • Mesajlar5
  • Rep puanı 0
en iyi lightsiber duellosu bu filmde
Şuan Offine!
Şuan Offine!
ruzgar787878 Süper Üye
***
Super Üye

  • Konular0
  • Mesajlar26
  • Rep puanı 0
thanks
Şuan Offine!
Şuan Offine!
GrimReaper Uzman Üye
**
Uzman Üye

  • Konular0
  • Mesajlar12
  • Rep puanı 0
Serinin en hareketli ve bi o kadar da hüzünlü filmi
Şuan Offine!
Şuan Offine!
kalimomu565 Yeni Üye
*
Üye

  • Konular0
  • Mesajlar5
  • Rep puanı 0
iyi iyi
Şuan Offine!
Şuan Offine!
zehirzee Yeni Üye
*
Üye

  • Konular0
  • Mesajlar1
  • Rep puanı 0
böö dfdf sdf fs
Şuan Offine!
Şuan Offine!
muzafferk Yeni Üye
*
Üye

  • Konular0
  • Mesajlar5
  • Rep puanı 0
daha seyretmedim..
Şuan Offine!
Şuan Offine!
thedours Yeni Üye
*
Üye

  • Konular0
  • Mesajlar2
  • Rep puanı 0
teşekkürler.
Şuan Offine!
Şuan Offine!
ICryOfFearI Yeni Üye
*
Üye

  • Konular0
  • Mesajlar4
  • Rep puanı 0
mükemmel
Şuan Online!
Şuan Online!
BroserBros Kurucu Admin
*******
Admin

16.12.2019 Güncelleme Notu:

Linkler yenilendi. Kırık linkler kaldırıldı ve Genel Konu Düzenlemesi Yapıldı


Konu ile Alakalı Benzer Konular
Konular Yazar Yorumlar Okunma Son Yorum
Filmin Yayınlanma Tarihi: 2011
Transformers: Ay'ın Karanlık Yüzü (Transformers: Dark of the Moon) - 2011 - TR+ORG - 1080P | tt1399103 TheSteeL 0 7 , Saat: 02:31
Son Yorum: TheSteeL
Filmin Yayınlanma Tarihi: 2021
Her Şey Yok Olur (Things Heard & Seen) - 2021 - TR+ORG - 1080P | tt10962368 TheSteeL 0 6 , Saat: 02:11
Son Yorum: TheSteeL
Filmin Yayınlanma Tarihi: 2018
Örümcek-Adam: Örümcek Evreninde (Spider-Man: Into the Spider-Verse) - 2018 - TR+ORG - 1080P | tt4633694 BroserBros 40 3,572 , Saat: 20:57
Son Yorum: DF FD
Filmin Yayınlanma Tarihi: 2018
Han Solo: Bir Star Wars Hikâyesi (Solo: A Star Wars Story) - 2018 - TR+ORG - 1080P | tt3778644 BroserBros 2 673 , Saat: 20:11
Son Yorum: BroserBros
Filmin Yayınlanma Tarihi: 2015
Yıldız Savaşları 7: Güç Uyanıyor (Star Wars: Episode VII - The Force Awakens) - 2015 - TR+ORG - 1080P | tt2488496 BroserBros 24 4,559 , Saat: 18:00
Son Yorum: BroserBros

Hızlı Menü: