Filmbol Forum Film İndir 720P v Maymunlar Cehennemi: Başlangıç (Rise of the Planet of the Apes) - 2011 - TR+ORG - 720P | tt1318514
Mega linklerinin şikayet edilmemesi için global erişime kapatıp sadece yorum yapanlara açıyoruz. Bu linkleri gizleme işlemini mecburen yapıyoruz ve yorum yapmanızın siteye değil size faydası vardır. Teşekürler yazmayı çok görüp, Random/Spam mesajlar atarak Mega linklerini açmaya çalışan kullanıcılara önce süresiz ban, devam ederse IP ban atacağız.
Filmbol'da moderatör olmak ister misiniz? Bizimle iletişime geçmek için tıklayın!
Maymunlar Cehennemi: Başlangıç (Rise of the Planet of the Apes) - 2011 - TR+ORG - 720P | tt1318514
BroserBros
Maymunlar Cehennemi: Başlangıç (Rise of the Planet of the Apes) - 2011 - TR+ORG - 720P | tt1318514
12
4763
  • Derecelendirme: 0/5 - 0 oy
  • 1
  • 2
  • 3
  • 4
  • 5
Konuyu Okuyanlar:1 Ziyaretçi
Şuan Online!
Filmin Yayınlanma Tarihi: 2011 
WWW
Şuan Online!
BroserBros Kurucu Admin
*******
Admin



 Maymunlar Cehennemi: Başlangıç



İlki 1968 yılında çekilen Planet of the Apes serisinin en yeni filmi olan Rise of the Planet of the Apes, safkan bir bilimkurgu/aksiyon…San Francisco’da ve günümüzde geçen hikayede genetik mühendislerinin, maymunların beyinlerini geliştirmek için yaptıkları deneyler sonucunda maymunların insanlar üzerinde üstünlük kurmak için açtıkları savaş konu ediliyor.

Filmin kadrosunda geçtiğimiz yıl Oscar’a aday olan James Franco’nun yanı sıra, Freida Pinto, John Lithgow ve Brian Cox gibi isimler de var.

Rupert Wyatt’ın yönettiği film, önceki orijinal filmlerin senaryosundan devam etmiyor ama onlardan bazı etmenler alarak daha da orijinal bir yeni hikaye yaratıyor. Mitolojinin bir kısmını ele alıyor diyebiliriz. Film aynı zamanda devamının çekilebilmesine yardımcı olacak öğeler de içeriyor.

Maymunlar Cehennemi: Başlangıç (2011) (Rise of the Planet of the Apes) | tt1318514 Filmi Imdb'den 500,000 kişi tarafından oylandı ve 7,6 puan aldı. Bu film için editör puanı %95 olarak belirlendi. İyi Seyirler!

Teknik Detaylar

Kod :
General
Unique ID                                : 156285659511181755910626269346095565693 (0x759385ED5C613D977A047D4E38160B7D)
Complete name                            : /home/BroserBros/Desktop/2/Maymunlar.Cehennemi.Başlangıç.2011.BluRay.720p.x264.TR.ENG.Filmbol.mkv
Format                                   : Matroska
Format version                           : Version 4
File size                                : 1.05 GiB
Duration                                 : 1 h 44 min
Overall bit rate                         : 1 430 kb/s
Movie name                               : Maymunlar Cehennemi: Başlangıç - Rise of the Planet of the Apes - 2011 | Filmbol.org
Encoded date                             : UTC 2021-05-08 14:17:14
Writing application                      : mkvmerge v53.0.0 ('Fool's Gold') 64-bit
Writing library                          : libebml v1.4.1 + libmatroska v1.6.2

Video
ID                                       : 1
Format                                   : AVC
Format/Info                              : Advanced Video Codec
Format profile                           : [email protected]
Format settings                          : CABAC / 5 Ref Frames
Format settings, CABAC                   : Yes
Format settings, Reference frames        : 5 frames
Codec ID                                 : V_MPEG4/ISO/AVC
Duration                                 : 1 h 44 min
Bit rate                                 : 944 kb/s
Width                                    : 1 280 pixels
Height                                   : 544 pixels
Display aspect ratio                     : 2.35:1
Frame rate mode                          : Constant
Frame rate                               : 23.976 (23976/1000) FPS
Original frame rate                      : 23.976 (24000/1001) FPS
Color space                              : YUV
Chroma subsampling                       : 4:2:0
Bit depth                                : 8 bits
Scan type                                : Progressive
Bits/(Pixel*Frame)                       : 0.057
Stream size                              : 709 MiB (66%)
Title                                    : 720P - Filmbol.org
Default                                  : Yes
Forced                                   : No

Audio #1
ID                                       : 2
Format                                   : AC-3
Format/Info                              : Audio Coding 3
Commercial name                          : Dolby Digital
Codec ID                                 : A_AC3
Duration                                 : 1 h 44 min
Bit rate mode                            : Constant
Bit rate                                 : 448 kb/s
Channel(s)                               : 6 channels
Channel layout                           : L R C LFE Ls Rs
Sampling rate                            : 48.0 kHz
Frame rate                               : 31.250 FPS (1536 SPF)
Compression mode                         : Lossy
Stream size                              : 336 MiB (31%)
Title                                    : Türkçe - Filmbol.org
Language                                 : Turkish
Service kind                             : Complete Main
Default                                  : Yes
Forced                                   : No

Audio #2
ID                                       : 3
Format                                   : AAC LC SBR
Format/Info                              : Advanced Audio Codec Low Complexity with Spectral Band Replication
Commercial name                          : HE-AAC
Format settings                          : Implicit
Codec ID                                 : A_AAC-2
Duration                                 : 1 h 44 min
Bit rate                                 : 36.0 kb/s
Channel(s)                               : 2 channels
Channel layout                           : L R
Sampling rate                            : 48.0 kHz
Frame rate                               : 23.438 FPS (2048 SPF)
Compression mode                         : Lossy
Stream size                              : 27.0 MiB (3%)
Title                                    : Orjinal Dil - Filmbol.org
Language                                 : English
Default                                  : No
Forced                                   : No

Text #1
ID                                       : 4
Format                                   : UTF-8
Codec ID                                 : S_TEXT/UTF8
Codec ID/Info                            : UTF-8 Plain Text
Duration                                 : 1 h 37 min
Bit rate                                 : 0 b/s
Count of elements                        : 12
Stream size                              : 474 Bytes (0%)
Title                                    : Türkçe Forced - Filmbol.org
Language                                 : Turkish
Default                                  : Yes
Forced                                   : Yes

Text #2
ID                                       : 5
Format                                   : UTF-8
Codec ID                                 : S_TEXT/UTF8
Codec ID/Info                            : UTF-8 Plain Text
Duration                                 : 1 h 41 min
Bit rate                                 : 34 b/s
Count of elements                        : 857
Stream size                              : 25.4 KiB (0%)
Title                                    : Türkçe - Filmbol.org
Language                                 : Turkish
Default                                  : No
Forced                                   : No

Film Detayları


 Maymunlar Cehennemi: Başlangıç

 Maymunlar Cehennemi: Başlangıç

 Maymunlar Cehennemi: Başlangıç


Film Fragmanı


Film Detayları

Uptobox ile indir

1Fichier ile indir

1Fichier'den İndiremiyor musun? Tıklayın!


Mega linki şuan da gizli. Kullanıma açmak için konuya yorum yapın ve ardından sayfayı yenileyin.

Mega


Bunun için üzgünüz ancak, bu linke sadece premium üyeler erişebilir.

Filmbol Cloud





Şuan Offine!
Şuan Offine!
metaldeniz Filmbol'un ilk Uzman Üyesi
***
Super Üye

  • Konular0
  • Mesajlar11
  • Rep puanı 0
fena degil
Şuan Offine!
Şuan Offine!
xemaa777 Yeni Üye
*
Üye

  • Konular0
  • Mesajlar2
  • Rep puanı 0
güzel
Şuan Online!
Şuan Online!
BroserBros Kurucu Admin
*******
Admin

14.12.2019 Güncelleme Notu:

Linkler yenilendi. Kırık linkler kaldırıldı ve Genel Konu Düzenlemesi Yapıldı
Şuan Offine!
Şuan Offine!
hasan01 Yeni Üye
*
Üye

  • Konular0
  • Mesajlar1
  • Rep puanı 0
çok güzel bir fim
:) :) :)
Şuan Offine!
Şuan Offine!
moonb0rn Yeni Üye
*
Üye

  • Konular0
  • Mesajlar3
  • Rep puanı 0
teşekkürler
Şuan Offine!
Şuan Offine!
vegeta1847 Yeni Üye
*
Üye

  • Konular0
  • Mesajlar4
  • Rep puanı 0
nıce film
Şuan Offine!
Şuan Offine!
sirpak Yeni Üye
*
Üye

  • Konular0
  • Mesajlar2
  • Rep puanı 0
Teşekkürler
Şuan Offine!
Şuan Offine!
magara27 Yeni Üye
*
Üye

  • Konular0
  • Mesajlar1
  • Rep puanı 0
güzel film
Şuan Offine!
Şuan Offine!
MB.erdogan Yeni Üye
*
Üye

  • Konular0
  • Mesajlar2
  • Rep puanı 0
Umarım iyidr


Hızlı Menü: