Filmbol Forum Film İndir 1080P v Maymunlar Cehennemi: Başlangıç (Rise of the Planet of the Apes) - 2011 - TR+ORG - 1080P | tt1318514
Mega linklerinin şikayet edilmemesi için global erişime kapatıp sadece yorum yapanlara açıyoruz. Bu linkleri gizleme işlemini mecburen yapıyoruz ve yorum yapmanızın siteye değil size faydası vardır. Teşekürler yazmayı çok görüp, Random/Spam mesajlar atarak Mega linklerini açmaya çalışan kullanıcılara önce süresiz ban, devam ederse IP ban atacağız.
Filmbol'da moderatör olmak ister misiniz? Bizimle iletişime geçmek için tıklayın!
Maymunlar Cehennemi: Başlangıç (Rise of the Planet of the Apes) - 2011 - TR+ORG - 1080P | tt1318514
BroserBros
Maymunlar Cehennemi: Başlangıç (Rise of the Planet of the Apes) - 2011 - TR+ORG - 1080P | tt1318514
11
6151
  • Derecelendirme: 0/5 - 0 oy
  • 1
  • 2
  • 3
  • 4
  • 5
Konuyu Okuyanlar:1 Ziyaretçi
Şuan Online!
Filmin Yayınlanma Tarihi: 2011 
WWW
Şuan Online!
BroserBros Kurucu Admin
*******
Admin



 Maymunlar Cehennemi: Başlangıç



İlki 1968 yılında çekilen Planet of the Apes serisinin en yeni filmi olan Rise of the Planet of the Apes, safkan bir bilimkurgu/aksiyon…San Francisco’da ve günümüzde geçen hikayede genetik mühendislerinin, maymunların beyinlerini geliştirmek için yaptıkları deneyler sonucunda maymunların insanlar üzerinde üstünlük kurmak için açtıkları savaş konu ediliyor.

Filmin kadrosunda geçtiğimiz yıl Oscar’a aday olan James Franco’nun yanı sıra, Freida Pinto, John Lithgow ve Brian Cox gibi isimler de var.

Rupert Wyatt’ın yönettiği film, önceki orijinal filmlerin senaryosundan devam etmiyor ama onlardan bazı etmenler alarak daha da orijinal bir yeni hikaye yaratıyor. Mitolojinin bir kısmını ele alıyor diyebiliriz. Film aynı zamanda devamının çekilebilmesine yardımcı olacak öğeler de içeriyor.

Maymunlar Cehennemi: Başlangıç (2011) (Rise of the Planet of the Apes) | tt1318514 Filmi Imdb'den 500,000 kişi tarafından oylandı ve 7,6 puan aldı. Bu film için editör puanı %95 olarak belirlendi. İyi Seyirler!

Teknik Detaylar

Kod :
General
Unique ID                                : 324961810428500720317089878482960603263 (0xF4795E3EFD7C151FDFBDC6E446A5587F)
Complete name                            : /home/BroserBros/Desktop/2/Maymunlar.Cehennemi.Başlangıç.2011.BluRay.1080p.x264.TR.ENG.Filmbol.mkv
Format                                   : Matroska
Format version                           : Version 4
File size                                : 1.82 GiB
Duration                                 : 1 h 44 min
Overall bit rate                         : 2 484 kb/s
Movie name                               : Maymunlar Cehennemi: Başlangıç - Rise of the Planet of the Apes - 2011 | Filmbol.org
Encoded date                             : UTC 2021-05-08 14:18:01
Writing application                      : mkvmerge v53.0.0 ('Fool's Gold') 64-bit
Writing library                          : libebml v1.4.1 + libmatroska v1.6.2

Video
ID                                       : 1
Format                                   : AVC
Format/Info                              : Advanced Video Codec
Format profile                           : [email protected]
Format settings                          : CABAC / 5 Ref Frames
Format settings, CABAC                   : Yes
Format settings, Reference frames        : 5 frames
Codec ID                                 : V_MPEG4/ISO/AVC
Duration                                 : 1 h 44 min
Bit rate                                 : 1 999 kb/s
Width                                    : 1 920 pixels
Height                                   : 816 pixels
Display aspect ratio                     : 2.35:1
Frame rate mode                          : Constant
Frame rate                               : 23.976 (24000/1001) FPS
Color space                              : YUV
Chroma subsampling                       : 4:2:0
Bit depth                                : 8 bits
Scan type                                : Progressive
Bits/(Pixel*Frame)                       : 0.053
Stream size                              : 1.46 GiB (80%)
Title                                    : 1080P - Filmbol.org
Writing library                          : x264 core 146 r2538 121396c
Encoding settings                        : cabac=1 / ref=5 / deblock=1:-1:-1 / analyse=0x3:0x113 / me=umh / subme=9 / psy=1 / psy_rd=1.00:0.15 / mixed_ref=1 / me_range=24 / chroma_me=1 / trellis=2 / 8x8dct=1 / cqm=0 / deadzone=21,11 / fast_pskip=0 / chroma_qp_offset=-3 / threads=12 / lookahead_threads=1 / sliced_threads=0 / nr=0 / decimate=1 / interlaced=0 / bluray_compat=0 / constrained_intra=0 / bframes=3 / b_pyramid=2 / b_adapt=2 / b_bias=0 / direct=3 / weightb=1 / open_gop=0 / weightp=2 / keyint=240 / keyint_min=23 / scenecut=40 / intra_refresh=0 / rc_lookahead=60 / rc=2pass / mbtree=1 / bitrate=1999 / ratetol=1.0 / qcomp=0.60 / qpmin=0 / qpmax=69 / qpstep=4 / cplxblur=20.0 / qblur=0.5 / vbv_maxrate=31250 / vbv_bufsize=31250 / nal_hrd=none / filler=0 / ip_ratio=1.40 / aq=1:1.00
Default                                  : Yes
Forced                                   : No
Color range                              : Limited
Color primaries                          : BT.709
Matrix coefficients                      : BT.709

Audio #1
ID                                       : 2
Format                                   : AC-3
Format/Info                              : Audio Coding 3
Commercial name                          : Dolby Digital
Codec ID                                 : A_AC3
Duration                                 : 1 h 44 min
Bit rate mode                            : Constant
Bit rate                                 : 448 kb/s
Channel(s)                               : 6 channels
Channel layout                           : L R C LFE Ls Rs
Sampling rate                            : 48.0 kHz
Frame rate                               : 31.250 FPS (1536 SPF)
Compression mode                         : Lossy
Stream size                              : 336 MiB (18%)
Title                                    : Türkçe - Filmbol.org
Language                                 : Turkish
Service kind                             : Complete Main
Default                                  : Yes
Forced                                   : No

Audio #2
ID                                       : 3
Format                                   : AAC LC SBR
Format/Info                              : Advanced Audio Codec Low Complexity with Spectral Band Replication
Commercial name                          : HE-AAC
Format settings                          : Implicit
Codec ID                                 : A_AAC-2
Duration                                 : 1 h 44 min
Bit rate                                 : 36.0 kb/s
Channel(s)                               : 2 channels
Channel layout                           : L R
Sampling rate                            : 48.0 kHz
Frame rate                               : 23.438 FPS (2048 SPF)
Compression mode                         : Lossy
Stream size                              : 27.0 MiB (1%)
Title                                    : Orjinal Dil - Filmbol.org
Language                                 : English
Default                                  : No
Forced                                   : No

Text #1
ID                                       : 4
Format                                   : UTF-8
Codec ID                                 : S_TEXT/UTF8
Codec ID/Info                            : UTF-8 Plain Text
Duration                                 : 1 h 37 min
Bit rate                                 : 0 b/s
Count of elements                        : 12
Stream size                              : 474 Bytes (0%)
Title                                    : Türkçe Forced - Filmbol.org
Language                                 : Turkish
Default                                  : Yes
Forced                                   : Yes

Text #2
ID                                       : 5
Format                                   : UTF-8
Codec ID                                 : S_TEXT/UTF8
Codec ID/Info                            : UTF-8 Plain Text
Duration                                 : 1 h 41 min
Bit rate                                 : 34 b/s
Count of elements                        : 857
Stream size                              : 25.4 KiB (0%)
Title                                    : Türkçe - Filmbol.org
Language                                 : Turkish
Default                                  : No
Forced                                   : No

Film Detayları


 Maymunlar Cehennemi: Başlangıç

 Maymunlar Cehennemi: Başlangıç

 Maymunlar Cehennemi: Başlangıç


Film Fragmanı


Film Detayları

Uptobox ile indir

1Fichier ile indir

1Fichier'den İndiremiyor musun? Tıklayın!


Mega linki şuan da gizli. Kullanıma açmak için konuya yorum yapın ve ardından sayfayı yenileyin.

Mega


Bunun için üzgünüz ancak, bu linke sadece premium üyeler erişebilir.

Filmbol Cloud





Şuan Offine!
Şuan Offine!
farukilbay Yeni Üye
*
Üye

  • Konular0
  • Mesajlar3
  • Rep puanı 0
emeğinize sağlık
Şuan Online!
Şuan Online!
BroserBros Kurucu Admin
*******
Admin

(28-01-2018, Saat: 18:43)farukilbay Adlı Kullanıcıdan Alıntı: emeğinize sağlık

Değerli yorumunuz için teşekkür ederiz.
Şuan Offine!
Şuan Offine!
Selezans Yeni Üye
*
Üye

  • Konular0
  • Mesajlar1
  • Rep puanı 0
ya o kadar site gezdim bu kadar güzel hazırlanmış site görmedim. Emeğinize sağlık
Şuan Online!
Şuan Online!
BroserBros Kurucu Admin
*******
Admin

14.12.2019 Güncelleme Notu:

Linkler yenilendi. Kırık linkler kaldırıldı ve Genel Konu Düzenlemesi Yapıldı
Şuan Offine!
Şuan Offine!
moonb0rn Yeni Üye
*
Üye

  • Konular0
  • Mesajlar3
  • Rep puanı 0
çok teşekkürler
Şuan Offine!
Şuan Offine!
YuSuFBeY Yeni Üye
*
Üye

  • Konular0
  • Mesajlar1
  • Rep puanı 0
Cok Güzel elinize sağlık
Şuan Offine!
Şuan Offine!
Brksvsn Uzman Üye
**
Uzman Üye

  • Konular0
  • Mesajlar12
  • Rep puanı 0
Çok güzel olmuş teşekkürler emeğinize sağlık Undecided
Şuan Offine!
Şuan Offine!
buraknur Cezalı Üye

  • Konular0
  • Mesajlar2
ads :heart:
Şuan Offine!
Şuan Offine!
muh147 Uzman Üye
**
Uzman Üye

  • Konular0
  • Mesajlar9
  • Rep puanı 0
Mukrmmel


Hızlı Menü: