Filmbol Forum Film İndir BRRip XviD v John Wick (John Wick 1) - 2014 - TR - BRRip XviD | tt2911666
Mega linklerinin şikayet edilmemesi için global erişime kapatıp sadece yorum yapanlara açıyoruz. Bu linkleri gizleme işlemini mecburen yapıyoruz ve yorum yapmanızın siteye değil size faydası vardır. Teşekürler yazmayı çok görüp, Random/Spam mesajlar atarak Mega linklerini açmaya çalışan kullanıcılara önce süresiz ban, devam ederse IP ban atacağız.
Filmbol'da moderatör olmak ister misiniz? Bizimle iletişime geçmek için tıklayın!
John Wick (John Wick 1) - 2014 - TR - BRRip XviD | tt2911666
BroserBros
John Wick (John Wick 1) - 2014 - TR - BRRip XviD | tt2911666
4
6376
  • Derecelendirme: 0/5 - 0 oy
  • 1
  • 2
  • 3
  • 4
  • 5
Konuyu Okuyanlar:1 Ziyaretçi
Şuan Online!
Filmin Yayınlanma Tarihi: 2014 
WWW
Şuan Online!
BroserBros Kurucu Admin
*******
Admin



 John Wick



John Wick, emekliye ayrılmış bir tetikçidir. Emekliliğinin tadını çıkarırken karısının yakalandığı amansız hastalıkla hayatı altüst olur. Karısından kendisine kalan en değerli varlığı ve can yoldaşı köpeğidir. Ancak evine dalan üç gangster onu da öldürür. Gansterlerden biri, mafya babası Viggo Tasarov’un oğlu Josef Tasarov’dur ve John’un daha önce birlikte çalıştığı bir adamdır. Artık kaybedecek hiçbir şeyi de kalmayan John Wick’in tek istediği intikamdır ve New York sokaklarında düşmanlarıyla nefes kesen bir kovalamacanın içine girer.
Yönetmenliğini David Leitch ve Chad Stahelski ikilisinin üstlendiği filmin başrolünde Keanu Reevus yer alıyor.

John Wick (2014) (John Wick 1) | tt2911666 Filmi Imdb'den 550,000 kişi tarafından oylandı ve 7,4 puan aldı. Bu film için editör puanı %92 olarak belirlendi. İyi Seyirler!

Teknik Detaylar

Kod :
General
Unique ID                                : 122395540272612208469294263821052643805 (0x5C14860B1C8A226E0F92A041CC4B89DD)
Complete name                            : /home/BroserBros/Desktop/8/John.Wick.2014.BRRip.XviD.TR.Filmbol.avi
Format                                   : Matroska
Format version                           : Version 4
File size                                : 1.23 GiB
Duration                                 : 1 h 41 min
Overall bit rate                         : 1 741 kb/s
Movie name                               : John Wick - 2014 | Filmbol.org
Encoded date                             : UTC 2021-03-29 15:16:52
Writing application                      : mkvmerge v53.0.0 ('Fool's Gold') 64-bit
Writing library                          : libebml v1.4.1 + libmatroska v1.6.2
FileExtension_Invalid                    : mkv mk3d mka mks

Video
ID                                       : 1
Format                                   : MPEG-4 Visual
Format profile                           : Advanced [email protected]
Format settings                          : BVOP1 / Custom Matrix
Format settings, BVOP                    : 1
Format settings, QPel                    : No
Format settings, GMC                     : No warppoints
Format settings, Matrix                  : Custom
Codec ID                                 : V_MS/VFW/FOURCC / XVID
Codec ID/Hint                            : XviD
Duration                                 : 1 h 41 min
Bit rate                                 : 1 612 kb/s
Width                                    : 720 pixels
Height                                   : 304 pixels
Display aspect ratio                     : 2.35:1
Frame rate mode                          : Constant
Frame rate                               : 23.976 (23976/1000) FPS
Color space                              : YUV
Chroma subsampling                       : 4:2:0
Bit depth                                : 8 bits
Scan type                                : Progressive
Compression mode                         : Lossy
Bits/(Pixel*Frame)                       : 0.307
Stream size                              : 1.14 GiB (93%)
Title                                    : John Wick - 2014 | Filmbol.org
Writing library                          : XviD 66
Default                                  : Yes
Forced                                   : No

Audio
ID                                       : 2
Format                                   : MPEG Audio
Format version                           : Version 1
Format profile                           : Layer 3
Format settings                          : Joint stereo / MS Stereo
Codec ID                                 : A_MPEG/L3
Codec ID/Hint                            : MP3
Duration                                 : 1 h 41 min
Bit rate mode                            : Constant
Bit rate                                 : 128 kb/s
Channel(s)                               : 2 channels
Sampling rate                            : 48.0 kHz
Frame rate                               : 41.667 FPS (1152 SPF)
Compression mode                         : Lossy
Delay relative to video                  : 12 ms
Stream size                              : 92.6 MiB (7%)
Title                                    : John Wick - 2014 | Filmbol.org
Writing library                          : LAME3.99.5
Default                                  : Yes
Forced                                   : No

Film Detayları


 John Wick

 John Wick

 John Wick


Film Fragmanı


Film Detayları


Uptobox ile indir

1Fichier ile indir

1Fichier'den İndiremiyor musun? Tıklayın!


Mega linki şuan da gizli. Kullanıma açmak için konuya yorum yapın ve ardından sayfayı yenileyin.

Mega


Bunun için üzgünüz ancak, bu linke sadece premium üyeler erişebilir.

Filmbol Cloud





Şuan Offine!
Şuan Offine!
tayyib5731 Uzman Üye
**
Uzman Üye

  • Konular0
  • Mesajlar21
  • Rep puanı 0
güzel film
Şuan Offine!
Şuan Offine!
tayyib5731 Uzman Üye
**
Uzman Üye

  • Konular0
  • Mesajlar21
  • Rep puanı 0
indirme linkleri silinmiştir lütfen yenileyin hemen yenileyin lütfen
Şuan Offine!
Şuan Offine!
Pohmen Yeni Üye
*
Üye

  • Konular0
  • Mesajlar3
  • Rep puanı 0
haRİKAAA
Şuan Online!
Şuan Online!
BroserBros Kurucu Admin
*******
Admin

30.03.2021 Yönetici Notu:

Kırık linkler kontrol edildi, kaldırıldı ve yenilendi. Tüm linkler tamamen çalışır durumda.


Konu ile Alakalı Benzer Konular
Konular Yazar Yorumlar Okunma Son Yorum
Filmin Yayınlanma Tarihi: 2018
Han Solo: Bir Star Wars Hikâyesi (Solo: A Star Wars Story) - 2018 - TR - BRRip XviD | tt3778644 BroserBros 2 438 1 saat önce
Son Yorum: Furkan61
Filmin Yayınlanma Tarihi: 2015
Yıldız Savaşları 7: Güç Uyanıyor (Star Wars: Episode VII - The Force Awakens) - 2015 - TR - BRRip XviD | tt2488496 BroserBros 8 2,184 1 saat önce
Son Yorum: Furkan61
Filmin Yayınlanma Tarihi: 1983
Yıldız Savaşları 6: Jedi'ın Dönüşü (Star Wars: Episode VI - Return of the Jedi) - 1983 - TR - BRRip XviD | tt0086190 BroserBros 8 1,785 1 saat önce
Son Yorum: Furkan61
Filmin Yayınlanma Tarihi: 1980
Yıldız Savaşları 5: İmparator (Star Wars: Episode V - The Empire Strikes Back) - 1980 - TR - BRRip XviD | tt0080684 BroserBros 6 1,779 2 saat önce
Son Yorum: Furkan61
Filmin Yayınlanma Tarihi: 2011
Transformers: Ay'ın Karanlık Yüzü (Transformers: Dark of the Moon) - 2011 - TR - BRRip XviD | tt1399103 TheSteeL 2 14 8 saat önce
Son Yorum: TheSteeL

Hızlı Menü: