Filmbol Forum Film İndir 1080P v John Wick (John Wick 1) - 2014 - TR+ORG - 1080P | tt2911666
Mega linklerinin şikayet edilmemesi için global erişime kapatıp sadece yorum yapanlara açıyoruz. Bu linkleri gizleme işlemini mecburen yapıyoruz ve yorum yapmanızın siteye değil size faydası vardır. Teşekürler yazmayı çok görüp, Random/Spam mesajlar atarak Mega linklerini açmaya çalışan kullanıcılara önce süresiz ban, devam ederse IP ban atacağız.
Filmbol'da moderatör olmak ister misiniz? Bizimle iletişime geçmek için tıklayın!
John Wick (John Wick 1) - 2014 - TR+ORG - 1080P | tt2911666
BroserBros
John Wick (John Wick 1) - 2014 - TR+ORG - 1080P | tt2911666
11
12186
  • Derecelendirme: 5/5 - 1 oy
  • 1
  • 2
  • 3
  • 4
  • 5
Konuyu Okuyanlar:1 Ziyaretçi
Şuan Online!
Filmin Yayınlanma Tarihi: 2014 
WWW
Şuan Online!
BroserBros Kurucu Admin
*******
Admin



 John Wick



John Wick, emekliye ayrılmış bir tetikçidir. Emekliliğinin tadını çıkarırken karısının yakalandığı amansız hastalıkla hayatı altüst olur. Karısından kendisine kalan en değerli varlığı ve can yoldaşı köpeğidir. Ancak evine dalan üç gangster onu da öldürür. Gansterlerden biri, mafya babası Viggo Tasarov’un oğlu Josef Tasarov’dur ve John’un daha önce birlikte çalıştığı bir adamdır. Artık kaybedecek hiçbir şeyi de kalmayan John Wick’in tek istediği intikamdır ve New York sokaklarında düşmanlarıyla nefes kesen bir kovalamacanın içine girer.
Yönetmenliğini David Leitch ve Chad Stahelski ikilisinin üstlendiği filmin başrolünde Keanu Reevus yer alıyor.

John Wick (2014) (John Wick 1) | tt2911666 Filmi Imdb'den 550,000 kişi tarafından oylandı ve 7,4 puan aldı. Bu film için editör puanı %92 olarak belirlendi. İyi Seyirler!

Teknik Detaylar

Kod :
General
Unique ID                                : 32555885881860088805003607056595071255 (0x187E0919B66B7E6B8F1F8AEBB77CB117)
Complete name                            : /home/BroserBros/Desktop/8/John.Wick.2014.1080p.BluRay.x264.TR.ENG.Filmbol.mkv
Format                                   : Matroska
Format version                           : Version 4
File size                                : 1.86 GiB
Duration                                 : 1 h 41 min
Overall bit rate                         : 2 628 kb/s
Movie name                               : John Wick - 2014 | Filmbol.org
Encoded date                             : UTC 2021-03-29 15:11:25
Writing application                      : mkvmerge v53.0.0 ('Fool's Gold') 64-bit
Writing library                          : libebml v1.4.1 + libmatroska v1.6.2

Video
ID                                       : 1
Format                                   : AVC
Format/Info                              : Advanced Video Codec
Format profile                           : [email protected]
Format settings                          : CABAC / 4 Ref Frames
Format settings, CABAC                   : Yes
Format settings, Reference frames        : 4 frames
Codec ID                                 : V_MPEG4/ISO/AVC
Duration                                 : 1 h 41 min
Bit rate                                 : 2 050 kb/s
Width                                    : 1 920 pixels
Height                                   : 800 pixels
Display aspect ratio                     : 2.40:1
Frame rate mode                          : Constant
Frame rate                               : 23.976 (24000/1001) FPS
Color space                              : YUV
Chroma subsampling                       : 4:2:0
Bit depth                                : 8 bits
Scan type                                : Progressive
Bits/(Pixel*Frame)                       : 0.056
Stream size                              : 1.45 GiB (78%)
Title                                    : 1080P - Filmbol.org
Writing library                          : x264 core 148
Encoding settings                        : cabac=1 / ref=4 / deblock=1:-1:-1 / analyse=0x3:0x133 / me=umh / subme=9 / psy=1 / psy_rd=1.00:0.15 / mixed_ref=1 / me_range=24 / chroma_me=1 / trellis=2 / 8x8dct=1 / cqm=0 / deadzone=21,11 / fast_pskip=0 / chroma_qp_offset=-3 / threads=12 / lookahead_threads=1 / sliced_threads=0 / nr=0 / decimate=1 / interlaced=0 / bluray_compat=0 / constrained_intra=0 / bframes=3 / b_pyramid=2 / b_adapt=2 / b_bias=0 / direct=3 / weightb=1 / open_gop=0 / weightp=2 / keyint=250 / keyint_min=23 / scenecut=40 / intra_refresh=0 / rc_lookahead=60 / rc=2pass / mbtree=1 / bitrate=2050 / ratetol=1.0 / qcomp=0.60 / qpmin=0 / qpmax=69 / qpstep=4 / cplxblur=20.0 / qblur=0.5 / vbv_maxrate=31250 / vbv_bufsize=31250 / nal_hrd=none / filler=0 / ip_ratio=1.40 / aq=1:1.00
Default                                  : Yes
Forced                                   : No

Audio #1
ID                                       : 2
Format                                   : AC-3
Format/Info                              : Audio Coding 3
Commercial name                          : Dolby Digital
Codec ID                                 : A_AC3
Duration                                 : 1 h 41 min
Bit rate mode                            : Constant
Bit rate                                 : 448 kb/s
Channel(s)                               : 6 channels
Channel layout                           : L R C LFE Ls Rs
Sampling rate                            : 48.0 kHz
Frame rate                               : 31.250 FPS (1536 SPF)
Compression mode                         : Lossy
Stream size                              : 324 MiB (17%)
Title                                    : Türkçe - Filmbol.org
Language                                 : Turkish
Service kind                             : Complete Main
Default                                  : Yes
Forced                                   : No

Audio #2
ID                                       : 3
Format                                   : AAC LC
Format/Info                              : Advanced Audio Codec Low Complexity
Codec ID                                 : A_AAC-2
Duration                                 : 1 h 41 min
Bit rate                                 : 129 kb/s
Channel(s)                               : 2 channels
Channel layout                           : L R
Sampling rate                            : 48.0 kHz
Frame rate                               : 46.875 FPS (1024 SPF)
Compression mode                         : Lossy
Stream size                              : 93.3 MiB (5%)
Title                                    : Orjinal Dil - Filmbol.org
Language                                 : English
Default                                  : No
Forced                                   : No

Text
ID                                       : 4
Format                                   : UTF-8
Codec ID                                 : S_TEXT/UTF8
Codec ID/Info                            : UTF-8 Plain Text
Duration                                 : 1 h 34 min
Bit rate                                 : 24 b/s
Count of elements                        : 478
Stream size                              : 16.6 KiB (0%)
Title                                    : Türkçe - Filmbol.org
Language                                 : Turkish
Default                                  : No
Forced                                   : No

Film Detayları


 John Wick

 John Wick

 John Wick


Film Fragmanı


Film Detayları

Uptobox ile indir

1Fichier ile indir

1Fichier'den İndiremiyor musun? Tıklayın!


Mega linki şuan da gizli. Kullanıma açmak için konuya yorum yapın ve ardından sayfayı yenileyin.

Mega


Bunun için üzgünüz ancak, bu linke sadece premium üyeler erişebilir.

Filmbol Cloud





Şuan Offine!
Şuan Offine!
Filmhastasi Uzman Üye
**
Uzman Üye

  • Konular0
  • Mesajlar13
  • Rep puanı 0
Vjkckkb
Şuan Online!
Şuan Online!
BroserBros Kurucu Admin
*******
Admin

14.12.2019 Güncelleme Notu:

Linkler yenilendi. Kırık linkler kaldırıldı ve Genel Konu Düzenlemesi Yapıldı
Şuan Offine!
Şuan Offine!
isocr7 Yeni Üye
*
Üye

  • Konular0
  • Mesajlar2
  • Rep puanı 0
EMEĞE SAĞLIK
Şuan Offine!
Şuan Offine!
skyzindan Yeni Üye
*
Üye

  • Konular0
  • Mesajlar2
  • Rep puanı 0
Güzel
Şuan Offine!
Şuan Offine!
raso_ Uzman Üye
**
Uzman Üye

  • Konular0
  • Mesajlar6
  • Rep puanı 0
teşekkürler
Şuan Offine!
Şuan Offine!
Mehmet Yöney Uzman Üye
**
Uzman Üye

  • Konular0
  • Mesajlar7
  • Rep puanı 0
nasıl bir film ?

nasıl bir film ?
Şuan Offine!
Şuan Offine!
souness Yeni Üye
*
Üye

  • Konular0
  • Mesajlar2
  • Rep puanı 0
teşekkürler
Şuan Offine!
Şuan Offine!
entekeli Süper Üye
***
Super Üye

  • Konular0
  • Mesajlar34
  • Rep puanı 0
güzel film
Şuan Offine!
Şuan Offine!
isayhan Süper Üye
***
Super Üye

  • Konular0
  • Mesajlar28
  • Rep puanı 0
teşekkürler


Konu ile Alakalı Benzer Konular
Konular Yazar Yorumlar Okunma Son Yorum
Filmin Yayınlanma Tarihi: 2011
Transformers: Ay'ın Karanlık Yüzü (Transformers: Dark of the Moon) - 2011 - TR+ORG - 1080P | tt1399103 TheSteeL 0 7 , Saat: 02:31
Son Yorum: TheSteeL
Filmin Yayınlanma Tarihi: 2021
Her Şey Yok Olur (Things Heard & Seen) - 2021 - TR+ORG - 1080P | tt10962368 TheSteeL 0 6 , Saat: 02:11
Son Yorum: TheSteeL
Filmin Yayınlanma Tarihi: 2018
Örümcek-Adam: Örümcek Evreninde (Spider-Man: Into the Spider-Verse) - 2018 - TR+ORG - 1080P | tt4633694 BroserBros 40 3,572 , Saat: 20:57
Son Yorum: DF FD
Filmin Yayınlanma Tarihi: 2015
Yıldız Savaşları 7: Güç Uyanıyor (Star Wars: Episode VII - The Force Awakens) - 2015 - TR+ORG - 1080P | tt2488496 BroserBros 24 4,559 , Saat: 18:00
Son Yorum: BroserBros
Filmin Yayınlanma Tarihi: 1983
Yıldız Savaşları 6: Jedi'ın Dönüşü (Star Wars: Episode VI - Return of the Jedi) - 1983 - TR+ORG - 1080P | tt0086190 BroserBros 24 3,407 , Saat: 17:48
Son Yorum: BroserBros

Hızlı Menü: