Filmbol Forum Film İndir BRRip XviD v Amerikan Pastası: Buluşma (American Reunion) - 2012 - TR - BRRip XviD
Bildirimi Kapat
Üyelik alımları açıldı.


Bildirimi Kapat
Mega linklerinin şikayet edilmemesi için global erişime kapatıp sadece yorum yapanlara açıyoruz. Bu linkleri gizleme işlemini mecburen yapıyoruz ve yorum yapmanızın siteye değil size faydası vardır. Teşekkürler yazmayı çok görüp, Random/Spam/Anlamsız mesajlar atarak forumu kirletip Mega linklerini açmaya çalışan kullanıcılara süresiz ban atacağız.

Premium Üyelik Al

Amerikan Pastası: Buluşma (American Reunion) - 2012 - TR - BRRip XviD
BroserBros
Amerikan Pastası: Buluşma (American Reunion) - 2012 - TR - BRRip XviD
3
379
  • Derecelendirme: 0/5 - 0 oy
  • 1
  • 2
  • 3
  • 4
  • 5
Konuyu Okuyanlar:2 Ziyaretçi
Şuan Online!
Filmin Yayınlanma Tarihi: 2012 
WWW
Şuan Online!
BroserBros Kurucu Admin
*******
Admin








 Amerikan Pastası: Buluşma



Amerikan Pastası Serisinin son filmi, tüm çılgın üviversiteliler bir araya gelir ve her biri birbirinden daha çılgındır. Bu arkadaşlar, şimdi birbirlerinin gençliklerini değerlendirmeye alacak ve kimin hanımcı olduğunu, kimin kanında hala çılgınlık taşınıdığını öğreneceklerdir...

Amerikan Pastası: Buluşma (2012) (American Reunion) Filmi Imdb'den 200,000 kişi tarafından oylandı ve 6,7 puan aldı. Bu film için editör puanı 6,9 olarak belirlendi. İyi Seyirler!

Teknik Detaylar

Kod :
General
Complete name                            : /root/Desktop/3/Amerikan.Pastası.8.Buluşma.2012.BRRip.XviD.TR.Filmbol.avi
Format                                  : AVI
Format/Info                              : Audio Video Interleave
File size                                : 697 MiB
Duration                                : 1h 53mn
Overall bit rate                        : 855 Kbps
Writing application                      : VirtualDubMod 1.5.10.2 (build 2540/release)
Writing library                          : VirtualDubMod build 2540/release

Video
ID                                      : 0
Format                                  : MPEG-4 Visual
Format profile                          : Advanced [email protected]
Format settings, BVOP                    : 3
Format settings, QPel                    : No
Format settings, GMC                    : No warppoints
Format settings, Matrix                  : Default (MPEG)
Codec ID                                : XVID
Codec ID/Hint                            : XviD
Duration                                : 1h 53mn
Bit rate                                : 718 Kbps
Width                                    : 656 pixels
Height                                  : 352 pixels
Display aspect ratio                    : 1.85:1
Frame rate                              : 23.976 (24000/1001) fps
Color space                              : YUV
Chroma subsampling                      : 4:2:0
Bit depth                                : 8 bits
Scan type                                : Progressive
Compression mode                        : Lossy
Bits/(Pixel*Frame)                      : 0.130
Stream size                              : 585 MiB (84%)
Writing library                          : XviD 1.2.1 (UTC 2008-12-04)

Audio
ID                                      : 1
Format                                  : MPEG Audio
Format version                          : Version 1
Format profile                          : Layer 3
Codec ID                                : 55
Codec ID/Hint                            : MP3
Duration                                : 1h 53mn
Bit rate mode                            : Constant
Bit rate                                : 128 Kbps
Channel(s)                              : 2 channels
Sampling rate                            : 44.1 KHz
Compression mode                        : Lossy
Stream size                              : 104 MiB (15%)
Alignment                                : Split accross interleaves
Interleave, duration                    : 42 ms (1.00 video frame)
Interleave, preload duration            : 500 ms

Film Detayları


 Amerikan Pastası: Buluşma

 Amerikan Pastası: Buluşma

 Amerikan Pastası: Buluşma


Film Fragmanı


Film Detayları



Zip Şifresi: filmbol.org Aşağıdaki butona tıklayarak kopyalabilirsiniz.



Uptobox ile indir

1Fichier ile indir

1Fichier'den İndiremiyor musun? Tıklayın!


Mega linki şuan da gizli. Kullanıma açmak için konuya yorum yapın ve ardından sayfayı yenileyin.

Mega


Bunun için üzgünüz ancak, bu linke sadece premium üyeler erişebilir.

Filmbol Cloud

Şuan Offine!
Şuan Offine!
sectechno Süper Üye
***
Super Üye

  • Konular5
  • Mesajlar102
  • Rep puanı 5
Teşekkürler BroserBros.Kolay gelsin.İyi çalışmalar.
Şuan Online!
Şuan Online!
BroserBros Kurucu Admin
*******
Admin

12.02.2021 Yönetici Notu:

Kırık linkler kontrol edildi, kaldırıldı ve yenilendi. Tüm linkler tamamen çalışır durumda.
Şuan Offine!
Şuan Offine!
Furkan61 Cezalı Üye

  • Konular0
  • Mesajlar329
güzel


Hızlı Menü: