Filmbol Forum Film İndir 720P v Hindistan Eşkıyaları (Thugs of Hindostan) - 2018 - TR - 720P
Bildirimi Kapat
Üyelik alımları açıldı.


Bildirimi Kapat
Mega linklerinin şikayet edilmemesi için global erişime kapatıp sadece yorum yapanlara açıyoruz. Bu linkleri gizleme işlemini mecburen yapıyoruz ve yorum yapmanızın siteye değil size faydası vardır. Teşekkürler yazmayı çok görüp, Random/Spam/Anlamsız mesajlar atarak forumu kirletip Mega linklerini açmaya çalışan kullanıcılara süresiz ban atacağız.

Premium Üyelik Al

Hindistan Eşkıyaları (Thugs of Hindostan) - 2018 - TR - 720P
BroserBros
Hindistan Eşkıyaları (Thugs of Hindostan) - 2018 - TR - 720P
1
371
  • Derecelendirme: 0/5 - 0 oy
  • 1
  • 2
  • 3
  • 4
  • 5
Konuyu Okuyanlar:2 Ziyaretçi
Şuan Online!
Filmin Yayınlanma Tarihi: 2018 
WWW
Şuan Online!
BroserBros Kurucu Admin
*******
Admin








 Hindistan Eşkıyaları



Hindistan Eşkıyaları, Hint yarımadasının Hindutan ya da Hindostan olarak bilindiği 1795 yılından kurgusal bir tarih masalını seyircilerine taşıyor.
1795 yılında, Hint yarımadasının hala Hindutan ya da Hindostan olarak bilindiği yıllarda, İngiliz Doğu Hindistan ortaklığı devrededir. Gittikçe genişleyen ve Hindistan'ın büyük bölümüne egemen olan İngiliz Doğu Hindistan ortaklığı engel tanımaz gibi görünmektedir. Ancak bu durumdan rahatsız olanlar vardır. Hindistan'ın ünlü haydut grubu mücadeleye hazırdır. Khudabaksh Azaad isimli bir haydutun liderliğindeki grup, Hindistan'ı İngilizlerden kurtarmak ve özgürlüğünü garantilemek adına zorlu bir mücadeleye atılırlar. Britanyalı bir komutan olan John Clive ise bu haberi aldığında harekete geçmeye karar verir ve sinsi bir planı devreye sokar. Bu plan kapsamında komutan, Awadh'ın küçük çaplı bir haydutu olan Firangi Mallah'ı kullanmaya karar verir. Komutan Clive, Mallah'ı grubun içine sızması ve tehditi engellemesi için haydutların peşine salar. Ancak Firangi, bu süreçte kendini keşfettiği gibi ne yapmak istediğini de fark etmeye başlayacak ve tarafını seçmek zorunda kalacaktır...

Hindistan Eşkıyaları (2018) (Thugs of Hindostan) Filmi Imdb'den 17,000 kişi tarafından oylandı ve 4,0 puan aldı. Bu film için editör puanı 4,5 olarak belirlendi. İyi Seyirler!

Teknik Detaylar

Kod :
General
Unique ID                                : 226142836285972431667208732166335537672 (0xAA2186A8AB35BAE01419DDB6288CA208)
Complete name                            : /root/Desktop/1/Hindistan.Eşkiyaları.2018.720p.BluRay.x264.TR.Filmbol.mkv
Format                                  : Matroska
Format version                          : Version 4 / Version 2
File size                                : 1.65 GiB
Duration                                : 2h 44mn
Overall bit rate                        : 1 431 Kbps
Movie name                              : Hindistan Eşkiyaları (2018) - Filmbol.org
Encoded date                            : UTC 2020-04-24 13:43:41
Writing application                      : mkvmerge v8.8.0 ('Wind at my back') 64bit
Writing library                          : libebml v1.3.3 + libmatroska v1.4.4

Video
ID                                      : 1
Format                                  : AVC
Format/Info                              : Advanced Video Codec
Format profile                          : [email protected]
Format settings, CABAC                  : Yes
Format settings, ReFrames                : 2 frames
Format settings, GOP                    : M=1, N=25
Codec ID                                : V_MPEG4/ISO/AVC
Duration                                : 2h 44mn
Bit rate                                : 1 237 Kbps
Width                                    : 1 280 pixels
Height                                  : 536 pixels
Display aspect ratio                    : 2.40:1
Frame rate mode                          : Constant
Frame rate                              : 24.000 fps
Color space                              : YUV
Chroma subsampling                      : 4:2:0
Bit depth                                : 8 bits
Scan type                                : Progressive
Bits/(Pixel*Frame)                      : 0.075
Stream size                              : 1.42 GiB (86%)
Title                                    : 720P - Filmbol.org
Language                                : English
Default                                  : Yes
Forced                                  : No

Audio
ID                                      : 2
Format                                  : AC-3
Format/Info                              : Audio Coding 3
Mode extension                          : CM (complete main)
Format settings, Endianness              : Big
Codec ID                                : A_AC3
Duration                                : 2h 44mn
Bit rate mode                            : Constant
Bit rate                                : 192 Kbps
Channel(s)                              : 2 channels
Channel positions                        : Front: L R
Sampling rate                            : 48.0 KHz
Frame rate                              : 31.250 fps (1536 spf)
Compression mode                        : Lossy
Stream size                              : 226 MiB (13%)
Title                                    : Türkçe
Language                                : Turkish
Default                                  : Yes
Forced                                  : No

Film Detayları


 Hindistan Eşkıyaları

 Hindistan Eşkıyaları

 Hindistan Eşkıyaları


Film Fragmanı


Film Detayları



Zip Şifresi: filmbol.org Aşağıdaki butona tıklayarak kopyalabilirsiniz.


Uptobox ile indir

1Fichier ile indir

1Fichier'den İndiremiyor musun? Tıklayın!


Mega linki şuan da gizli. Kullanıma açmak için konuya yorum yapın ve ardından sayfayı yenileyin.

Mega


Bunun için üzgünüz ancak, bu linke sadece premium üyeler erişebilir.

Filmbol Cloud

Şuan Online!
Şuan Online!
BroserBros Kurucu Admin
*******
Admin

13.02.2021 Yönetici Notu:

Kırık linkler kontrol edildi, kaldırıldı ve yenilendi. Tüm linkler tamamen çalışır durumda.


Hızlı Menü: