Filmbol Forum Film İndir BRRip XviD v Hindistan Eşkıyaları (Thugs of Hindostan) - 2018 - TR - BRRip XviD
Bildirimi Kapat
Üyelik alımları açıldı.


Bildirimi Kapat
Mega linklerinin şikayet edilmemesi için global erişime kapatıp sadece yorum yapanlara açıyoruz. Bu linkleri gizleme işlemini mecburen yapıyoruz ve yorum yapmanızın siteye değil size faydası vardır. Teşekkürler yazmayı çok görüp, Random/Spam/Anlamsız mesajlar atarak forumu kirletip Mega linklerini açmaya çalışan kullanıcılara süresiz ban atacağız.

Premium Üyelik Al

Hindistan Eşkıyaları (Thugs of Hindostan) - 2018 - TR - BRRip XviD
BroserBros
Hindistan Eşkıyaları (Thugs of Hindostan) - 2018 - TR - BRRip XviD
1
329
  • Derecelendirme: 0/5 - 0 oy
  • 1
  • 2
  • 3
  • 4
  • 5
Konuyu Okuyanlar:2 Ziyaretçi
Şuan Online!
Filmin Yayınlanma Tarihi: 2018 
WWW
Şuan Online!
BroserBros Kurucu Admin
*******
Admin








 Hindistan Eşkıyaları



Hindistan Eşkıyaları, Hint yarımadasının Hindutan ya da Hindostan olarak bilindiği 1795 yılından kurgusal bir tarih masalını seyircilerine taşıyor.
1795 yılında, Hint yarımadasının hala Hindutan ya da Hindostan olarak bilindiği yıllarda, İngiliz Doğu Hindistan ortaklığı devrededir. Gittikçe genişleyen ve Hindistan'ın büyük bölümüne egemen olan İngiliz Doğu Hindistan ortaklığı engel tanımaz gibi görünmektedir. Ancak bu durumdan rahatsız olanlar vardır. Hindistan'ın ünlü haydut grubu mücadeleye hazırdır. Khudabaksh Azaad isimli bir haydutun liderliğindeki grup, Hindistan'ı İngilizlerden kurtarmak ve özgürlüğünü garantilemek adına zorlu bir mücadeleye atılırlar. Britanyalı bir komutan olan John Clive ise bu haberi aldığında harekete geçmeye karar verir ve sinsi bir planı devreye sokar. Bu plan kapsamında komutan, Awadh'ın küçük çaplı bir haydutu olan Firangi Mallah'ı kullanmaya karar verir. Komutan Clive, Mallah'ı grubun içine sızması ve tehditi engellemesi için haydutların peşine salar. Ancak Firangi, bu süreçte kendini keşfettiği gibi ne yapmak istediğini de fark etmeye başlayacak ve tarafını seçmek zorunda kalacaktır...

Hindistan Eşkıyaları (2018) (Thugs of Hindostan) Filmi Imdb'den 17,000 kişi tarafından oylandı ve 4,0 puan aldı. Bu film için editör puanı 4,5 olarak belirlendi. İyi Seyirler!

Teknik Detaylar

Kod :
General
Complete name                            : /root/Desktop/1/Hindistan.Eşkiyaları.2018.BDRip.XViD.TR.Filmbol.avi
Format                                  : AVI
Format/Info                              : Audio Video Interleave
File size                                : 1.42 GiB
Duration                                : 2h 44mn
Overall bit rate                        : 1 239 Kbps

Video
ID                                      : 0
Format                                  : MPEG-4 Visual
Format profile                          : Advanced [email protected]
Format settings, BVOP                    : 2
Format settings, QPel                    : No
Format settings, GMC                    : No warppoints
Format settings, Matrix                  : Default (MPEG)
Codec ID                                : XVID
Codec ID/Hint                            : XviD
Duration                                : 2h 44mn
Bit rate                                : 1 098 Kbps
Width                                    : 720 pixels
Height                                  : 300 pixels
Display aspect ratio                    : 2.40:1
Frame rate                              : 24.000 fps
Color space                              : YUV
Chroma subsampling                      : 4:2:0
Bit depth                                : 8 bits
Scan type                                : Progressive
Compression mode                        : Lossy
Bits/(Pixel*Frame)                      : 0.212
Stream size                              : 1.26 GiB (89%)
Writing library                          : XviD 64

Audio
ID                                      : 1
Format                                  : MPEG Audio
Format version                          : Version 1
Format profile                          : Layer 3
Mode                                    : Joint stereo
Mode extension                          : MS Stereo
Codec ID                                : 55
Codec ID/Hint                            : MP3
Duration                                : 2h 44mn
Bit rate mode                            : Constant
Bit rate                                : 128 Kbps
Channel(s)                              : 2 channels
Sampling rate                            : 48.0 KHz
Compression mode                        : Lossy
Stream size                              : 151 MiB (10%)
Alignment                                : Aligned on interleaves
Interleave, duration                    : 24 ms (0.58 video frame)

Film Detayları


 Hindistan Eşkıyaları

 Hindistan Eşkıyaları

 Hindistan Eşkıyaları


Film Fragmanı


Film Detayları



Zip Şifresi: filmbol.org Aşağıdaki butona tıklayarak kopyalabilirsiniz.



Uptobox ile indir

1Fichier ile indir

1Fichier'den İndiremiyor musun? Tıklayın!


Mega linki şuan da gizli. Kullanıma açmak için konuya yorum yapın ve ardından sayfayı yenileyin.

Mega


Bunun için üzgünüz ancak, bu linke sadece premium üyeler erişebilir.

Filmbol Cloud

Şuan Online!
Şuan Online!
BroserBros Kurucu Admin
*******
Admin

13.02.2021 Yönetici Notu:

Kırık linkler kontrol edildi, kaldırıldı ve yenilendi. Tüm linkler tamamen çalışır durumda.


Hızlı Menü: