Filmbol Forum Film İndir 1080P v Ajanlar İş Başında (Spies in Disguise) - 2019 - TR - 1080P
Bildirimi Kapat
Üyelik alımları açıldı.


Bildirimi Kapat
Mega linklerinin şikayet edilmemesi için global erişime kapatıp sadece yorum yapanlara açıyoruz. Bu linkleri gizleme işlemini mecburen yapıyoruz ve yorum yapmanızın siteye değil size faydası vardır. Teşekkürler yazmayı çok görüp, Random/Spam/Anlamsız mesajlar atarak forumu kirletip Mega linklerini açmaya çalışan kullanıcılara süresiz ban atacağız.

Premium Üyelik Al

Ajanlar İş Başında (Spies in Disguise) - 2019 - TR - 1080P
BroserBros
Ajanlar İş Başında (Spies in Disguise) - 2019 - TR - 1080P
3
421
  • Derecelendirme: 0/5 - 0 oy
  • 1
  • 2
  • 3
  • 4
  • 5
Konuyu Okuyanlar:1 Ziyaretçi
Şuan Online!
Filmin Yayınlanma Tarihi: 2020 
WWW
Şuan Online!
BroserBros Kurucu Admin
*******
Admin








 Ajanlar İş Başında



Lance Sterling, uluslararası casusluluğun yüksek oktanlı dünyasının en önde gelen ismidir. Dünyanın en harika casusu olan Lance havalı, sevimli ve süper yetenekli olmanın yanı sıra dünyayı kurtarmanın günlük işlerinden biri olduğunun farkındadır, bu işte ondan iyisi de yoktur. Genç Walter ise Lance'in neredeyse tam tersidir. Zekasıyla göz kamaştıran Walter'ın sosyal becerileri ne yazık ki o kadar da gelişmiş değildir. Ancak Walter da sosyalleşmek konusundaki eksikliğini kapatmak için zekasını kullanmakta ve buluşlar yapmaktadır. Walter, Lance'in tehlikeli görevlerinde kullandığı araçları icat eden bilimsel dehadır. Fakat olaylar beklenmedik bir dönüş yaptığında, Walter ve Lance aniden yeni bir şekilde birbirlerine güvenmek zorunda kalırlar. Eğer bu birbiriyle alakası olmayan ikili bir takım olarak çalışmayı öğrenemezse, tüm dünya tehlike altında olacaktır...

Ajanlar İş Başında (2019) (Spies in Disguise) Filmi Imdb'den 21,000 kişi tarafından oylandı ve 6,8 puan aldı. Bu film için editör puanı 6,9 olarak belirlendi. İyi Seyirler!

Teknik Detaylar

Kod :
General
Unique ID                                : 244410929427220699765943639362478843968 (0xB7DFD5308AB73C6451D8B745CD54A840)
Complete name                            : /root/Desktop/7/Ajanlar.İş.Başında.2019.1080p.BluRay.x264.TR.Filmbol.mkv
Format                                  : Matroska
Format version                          : Version 4 / Version 2
File size                                : 1.87 GiB
Duration                                : 1h 41mn
Overall bit rate                        : 2 635 Kbps
Movie name                              : Ajanlar İş Başında (2019) - Filmbol.org
Encoded date                            : UTC 2020-04-19 13:59:12
Writing application                      : mkvmerge v8.8.0 ('Wind at my back') 64bit
Writing library                          : libebml v1.3.3 + libmatroska v1.4.4

Video
ID                                      : 1
Format                                  : AVC
Format/Info                              : Advanced Video Codec
Format profile                          : [email protected]
Format settings, CABAC                  : Yes
Format settings, ReFrames                : 4 frames
Codec ID                                : V_MPEG4/ISO/AVC
Duration                                : 1h 41mn
Bit rate                                : 2 250 Kbps
Width                                    : 1 920 pixels
Height                                  : 800 pixels
Display aspect ratio                    : 2.40:1
Frame rate mode                          : Constant
Frame rate                              : 23.976 (24000/1001) fps
Color space                              : YUV
Chroma subsampling                      : 4:2:0
Bit depth                                : 8 bits
Scan type                                : Progressive
Bits/(Pixel*Frame)                      : 0.061
Stream size                              : 1.60 GiB (85%)
Title                                    : 1080P - Filmbol.org
Writing library                          : x264 core 158
Encoding settings                        : cabac=1 / ref=4 / deblock=1:-1:-1 / analyse=0x3:0x133 / me=umh / subme=9 / psy=1 / psy_rd=1.00:0.15 / mixed_ref=1 / me_range=24 / chroma_me=1 / trellis=2 / 8x8dct=1 / cqm=0 / deadzone=21,11 / fast_pskip=0 / chroma_qp_offset=-3 / threads=18 / lookahead_threads=1 / sliced_threads=0 / nr=0 / decimate=1 / interlaced=0 / bluray_compat=0 / constrained_intra=0 / bframes=3 / b_pyramid=2 / b_adapt=2 / b_bias=0 / direct=3 / weightb=1 / open_gop=0 / weightp=2 / keyint=250 / keyint_min=23 / scenecut=40 / intra_refresh=0 / rc_lookahead=60 / rc=2pass / mbtree=1 / bitrate=2250 / ratetol=1.0 / qcomp=0.60 / qpmin=0 / qpmax=69 / qpstep=4 / cplxblur=20.0 / qblur=0.5 / vbv_maxrate=31250 / vbv_bufsize=31250 / nal_hrd=none / filler=0 / ip_ratio=1.40 / aq=1:1.00
Default                                  : Yes
Forced                                  : No

Audio
ID                                      : 2
Format                                  : AC-3
Format/Info                              : Audio Coding 3
Mode extension                          : CM (complete main)
Format settings, Endianness              : Big
Codec ID                                : A_AC3
Duration                                : 1h 41mn
Bit rate mode                            : Constant
Bit rate                                : 384 Kbps
Channel(s)                              : 6 channels
Channel positions                        : Front: L C R, Side: L R, LFE
Sampling rate                            : 48.0 KHz
Frame rate                              : 31.250 fps (1536 spf)
Compression mode                        : Lossy
Stream size                              : 280 MiB (15%)
Title                                    : Türkçe - Filmbol.org
Language                                : Turkish
Default                                  : Yes
Forced                                  : No

Text
ID                                      : 3
Format                                  : UTF-8
Codec ID                                : S_TEXT/UTF8
Codec ID/Info                            : UTF-8 Plain Text
Duration                                : 1h 40mn
Bit rate                                : 0 bps
Count of elements                        : 33
Stream size                              : 698 Bytes (0%)
Title                                    : KISIM
Language                                : Turkish
Default                                  : Yes
Forced                                  : Yes

Film Detayları


 Ajanlar İş Başında

 Ajanlar İş Başında

 Ajanlar İş Başında


Film Fragmanı


Film Detayları



Zip Şifresi: filmbol.org Aşağıdaki butona tıklayarak kopyalabilirsiniz.


Uptobox ile indir

1Fichier ile indir

1Fichier'den İndiremiyor musun? Tıklayın!


Mega linki şuan da gizli. Kullanıma açmak için konuya yorum yapın ve ardından sayfayı yenileyin.

Mega


Bunun için üzgünüz ancak, bu linke sadece premium üyeler erişebilir.

Filmbol Cloud

Şuan Online!
Şuan Online!
BroserBros Kurucu Admin
*******
Admin

13.02.2021 Yönetici Notu:

Kırık linkler kontrol edildi, kaldırıldı ve yenilendi. Tüm linkler tamamen çalışır durumda.
Şuan Offine!
Şuan Offine!
firstiger Yeni Üye
*
Üye

  • Konular0
  • Mesajlar1
  • Rep puanı 0
teşekkürler
Şuan Offine!
Şuan Offine!
ecziso Uzman Üye
**
Uzman Üye

  • Konular0
  • Mesajlar24
  • Rep puanı 0
tşklerr


Hızlı Menü: