Filmbol Forum Film İndir BRRip XviD v Ajanlar İş Başında (Spies in Disguise) - 2019 - TR - BRRip XviD
Bildirimi Kapat
Üyelik alımları açıldı.


Bildirimi Kapat
Mega linklerinin şikayet edilmemesi için global erişime kapatıp sadece yorum yapanlara açıyoruz. Bu linkleri gizleme işlemini mecburen yapıyoruz ve yorum yapmanızın siteye değil size faydası vardır. Teşekkürler yazmayı çok görüp, Random/Spam/Anlamsız mesajlar atarak forumu kirletip Mega linklerini açmaya çalışan kullanıcılara süresiz ban atacağız.

Premium Üyelik Al

Ajanlar İş Başında (Spies in Disguise) - 2019 - TR - BRRip XviD
BroserBros
Ajanlar İş Başında (Spies in Disguise) - 2019 - TR - BRRip XviD
1
349
  • Derecelendirme: 0/5 - 0 oy
  • 1
  • 2
  • 3
  • 4
  • 5
Konuyu Okuyanlar:1 Ziyaretçi
Şuan Online!
Filmin Yayınlanma Tarihi: 2020 
WWW
Şuan Online!
BroserBros Kurucu Admin
*******
Admin








 Ajanlar İş Başında



Lance Sterling, uluslararası casusluluğun yüksek oktanlı dünyasının en önde gelen ismidir. Dünyanın en harika casusu olan Lance havalı, sevimli ve süper yetenekli olmanın yanı sıra dünyayı kurtarmanın günlük işlerinden biri olduğunun farkındadır, bu işte ondan iyisi de yoktur. Genç Walter ise Lance'in neredeyse tam tersidir. Zekasıyla göz kamaştıran Walter'ın sosyal becerileri ne yazık ki o kadar da gelişmiş değildir. Ancak Walter da sosyalleşmek konusundaki eksikliğini kapatmak için zekasını kullanmakta ve buluşlar yapmaktadır. Walter, Lance'in tehlikeli görevlerinde kullandığı araçları icat eden bilimsel dehadır. Fakat olaylar beklenmedik bir dönüş yaptığında, Walter ve Lance aniden yeni bir şekilde birbirlerine güvenmek zorunda kalırlar. Eğer bu birbiriyle alakası olmayan ikili bir takım olarak çalışmayı öğrenemezse, tüm dünya tehlike altında olacaktır...

Ajanlar İş Başında (2019) (Spies in Disguise) Filmi Imdb'den 21,000 kişi tarafından oylandı ve 6,8 puan aldı. Bu film için editör puanı 6,9 olarak belirlendi. İyi Seyirler!

Teknik Detaylar

Kod :
General
Complete name                            : /root/Desktop/7/Ajanlar.İş.Başında.2019.BRRip.XViD.TR.Filmbol.avi
Format                                  : AVI
Format/Info                              : Audio Video Interleave
File size                                : 1.24 GiB
Duration                                : 1h 41mn
Overall bit rate                        : 1 738 Kbps

Video
ID                                      : 0
Format                                  : MPEG-4 Visual
Format profile                          : [email protected]
Format settings, BVOP                    : No
Format settings, QPel                    : No
Format settings, GMC                    : No warppoints
Format settings, Matrix                  : Default (H.263)
Codec ID                                : XVID
Codec ID/Hint                            : XviD
Duration                                : 1h 41mn
Bit rate                                : 1 596 Kbps
Width                                    : 720 pixels
Height                                  : 304 pixels
Display aspect ratio                    : 2.40:1
Frame rate                              : 23.976 fps
Color space                              : YUV
Chroma subsampling                      : 4:2:0
Bit depth                                : 8 bits
Scan type                                : Progressive
Compression mode                        : Lossy
Bits/(Pixel*Frame)                      : 0.304
Stream size                              : 1.14 GiB (92%)
Writing library                          : Lavc58.35.100

Audio
ID                                      : 1
Format                                  : MPEG Audio
Format version                          : Version 1
Format profile                          : Layer 3
Mode                                    : Joint stereo
Mode extension                          : MS Stereo
Codec ID                                : 55
Codec ID/Hint                            : MP3
Duration                                : 1h 41mn
Bit rate mode                            : Constant
Bit rate                                : 128 Kbps
Channel(s)                              : 2 channels
Sampling rate                            : 48.0 KHz
Compression mode                        : Lossy
Stream size                              : 93.2 MiB (7%)
Alignment                                : Aligned on interleaves
Interleave, duration                    : 24 ms (0.58 video frame)

Film Detayları


 Ajanlar İş Başında

 Ajanlar İş Başında

 Ajanlar İş Başında


Film Fragmanı


Film Detayları



Zip Şifresi: filmbol.org Aşağıdaki butona tıklayarak kopyalabilirsiniz.



Uptobox ile indir

1Fichier ile indir

1Fichier'den İndiremiyor musun? Tıklayın!


Mega linki şuan da gizli. Kullanıma açmak için konuya yorum yapın ve ardından sayfayı yenileyin.

Mega


Bunun için üzgünüz ancak, bu linke sadece premium üyeler erişebilir.

Filmbol Cloud

Şuan Online!
Şuan Online!
BroserBros Kurucu Admin
*******
Admin

13.02.2021 Yönetici Notu:

Kırık linkler kontrol edildi, kaldırıldı ve yenilendi. Tüm linkler tamamen çalışır durumda.


Hızlı Menü: