⤤ Premium'a Yükselt

Merhaba, Ziyaretçi. Mega linklerinin bir kısmı deaktif halde ve yenileme çalışmalarına başladık. Bu süre içinde ikinci duyuruya kadar mega linklerini raporlamayın!! x

Filmbol Forum Film İndir FHD - FULL HD v Asteriks: Sihirli İksirin Sırrı (Astérix: Le secret de la potion magique) - 2018 - TR+ORG - FHD - x264 | tt8001346

Filmbol TV kullanıma açıldı. Bu adresten giriş yapabilirsin: Giriş





Asteriks: Sihirli İksirin Sırrı (Astérix: Le secret de la potion magique) - 2018 - TR+ORG - FHD - x264 | tt8001346
BroserBros
Asteriks: Sihirli İksirin Sırrı (Astérix: Le secret de la potion magique) - 2018 - TR+ORG - FHD - x264 | tt8001346
6
1574
  • Derecelendirme: 0/5 - 0 oy
  • 1
  • 2
  • 3
  • 4
  • 5
Konuyu Okuyanlar:2 Ziyaretçi
Şuan Online!
Filmin Yayınlanma Tarihi: 2018 
WWW
Rapor Et!
Şuan Online!
BroserBros Kurucu Admin
*******
Admin




[mkvac3][/mkvac3]








 Asteriks: Sihirli İksirin Sırrı



Asteriks filmlerini eminiz ki bir yerlerden duydun. Bu animasyon filminde ise Asteriks ile yolculuğa çıkan Büyüfix’in maceraları konu ediniyor. Sihirli iksir de bildiğiniz gibi galyalılara mükemmel bir güç katar. Ancak büyünün mucidi Büyüfix sakatlandığında işler galyalılara kalır ve bu iş o kadar da kolay değildir…

Asteriks: Sihirli İksirin Sırrı (2018) (Astérix: Le secret de la potion magique) | tt8001346 Filmi Imdb'den 10,000 kişi tarafından oylandı ve 6,7 puan aldı. Bu film için editör puanı 6 olarak belirlendi. İyi Seyirler!

Teknik Detaylar

Kod :
General
Unique ID                                : 339570328853320150357403166729006756739 (0xFF76DDD0163A68DD39D78F0A2BE83383)
Complete name                            : /home/BroserBros/Desktop/4/Asteriks.Sihirli.İksirin.Sırrı.2018.FHD.BluRay.x264.TR.ENG.Filmbol.mkv
Format                                   : Matroska
Format version                           : Version 4
File size                                : 3.04 GiB
Duration                                 : 1 h 25 min
Overall bit rate                         : 5 098 kb/s
Movie name                               : Asteriks - Sihirli İksirin Sırrı (2018) - Filmbol.org
Encoded date                             : UTC 2021-02-18 15:17:18
Writing application                      : mkvmerge v53.0.0 ('Fool's Gold') 64-bit
Writing library                          : libebml v1.4.1 + libmatroska v1.6.2

Video
ID                                       : 1
Format                                   : AVC
Format/Info                              : Advanced Video Codec
Format profile                           : [email protected]
Format settings                          : CABAC / 5 Ref Frames
Format settings, CABAC                   : Yes
Format settings, Reference frames        : 5 frames
Format settings, GOP                     : N=1
Codec ID                                 : V_MPEG4/ISO/AVC
Duration                                 : 1 h 25 min
Bit rate                                 : 4 520 kb/s
Width                                    : 1 920 pixels
Height                                   : 802 pixels
Display aspect ratio                     : 2.40:1
Frame rate mode                          : Constant
Frame rate                               : 23.976 FPS
Color space                              : YUV
Chroma subsampling                       : 4:2:0
Bit depth                                : 8 bits
Scan type                                : Progressive
Bits/(Pixel*Frame)                       : 0.122
Stream size                              : 2.69 GiB (89%)
Title                                    : FHD - Filmbol.org
Language                                 : English
Default                                  : Yes
Forced                                   : No
Color range                              : Limited
Color primaries                          : BT.709
Transfer characteristics                 : BT.709
Matrix coefficients                      : BT.709

Audio #1
ID                                       : 2
Format                                   : AC-3
Format/Info                              : Audio Coding 3
Commercial name                          : Dolby Digital
Codec ID                                 : A_AC3
Duration                                 : 1 h 25 min
Bit rate mode                            : Constant
Bit rate                                 : 192 kb/s
Channel(s)                               : 2 channels
Channel layout                           : L R
Sampling rate                            : 48.0 kHz
Frame rate                               : 31.250 FPS (1536 SPF)
Compression mode                         : Lossy
Delay relative to video                  : 15 s 958 ms
Stream size                              : 117 MiB (4%)
Title                                    : Türkçe - Filmbol.org
Language                                 : Turkish
Service kind                             : Complete Main
Default                                  : Yes
Forced                                   : Yes

Audio #2
ID                                       : 3
Format                                   : AC-3
Format/Info                              : Audio Coding 3
Commercial name                          : Dolby Digital
Codec ID                                 : A_AC3
Duration                                 : 1 h 25 min
Bit rate mode                            : Constant
Bit rate                                 : 384 kb/s
Channel(s)                               : 6 channels
Channel layout                           : L R C LFE Ls Rs
Sampling rate                            : 48.0 kHz
Frame rate                               : 31.250 FPS (1536 SPF)
Compression mode                         : Lossy
Delay relative to video                  : -42 ms
Stream size                              : 234 MiB (8%)
Title                                    : İngilizce - Filmbol.org
Language                                 : English
Service kind                             : Complete Main
Default                                  : No
Forced                                   : No

Film Detayları


 Asteriks: Sihirli İksirin Sırrı

 Asteriks: Sihirli İksirin Sırrı

 Asteriks: Sihirli İksirin Sırrı


Film Fragmanı


Film İndir


Rar Şifresi: filmbol.org










Şuan Online!
Rapor Et!
Şuan Online!
BroserBros Kurucu Admin
*******
Admin
20.02.2021 Yönetici Notu:

Kırık linkler kontrol edildi, kaldırıldı ve yenilendi. Tüm linkler tamamen çalışır durumda.
Şuan Offine!
Rapor Et!
Şuan Offine!
neobre Üye
*
Üye
  • Konular0
  • Mesajlar153
  • Rep puanı 0
Teşekkürler
Şuan Offine!
Rapor Et!
Şuan Offine!
subv Üye
*
Üye
  • Konular0
  • Mesajlar6
  • Rep puanı 0
Teşekkürler.
Şuan Offine!
Rapor Et!
Şuan Offine!
PuNkDuNk Üye
*
Üye
  • Konular0
  • Mesajlar174
  • Rep puanı 0
Teşekkürler
Şuan Offine!
Rapor Et!
Şuan Offine!
omerasaf8 Üye
*
Üye
  • Konular0
  • Mesajlar8
  • Rep puanı 0
Teşekkürler.
Şuan Online!
Rapor Et!
Şuan Online!
s.nezir Premium Üye
****
  • Konular17
  • Mesajlar252
  • Rep puanı 3
teşekkürler.


Hızlı Menü: