⤤ Premium'a Yükselt

Merhaba, Ziyaretçi. Mega linklerinin bir kısmı deaktif halde ve yenileme çalışmalarına başladık. Bu süre içinde ikinci duyuruya kadar mega linklerini raporlamayın!! x

Filmbol Forum Film İndir BRRip XviD v Asteriks: Sihirli İksirin Sırrı (Astérix: Le secret de la potion magique) - 2018 - TR - BRRip XviD | tt8001346

Filmbol TV kullanıma açıldı. Bu adresten giriş yapabilirsin: Giriş





Asteriks: Sihirli İksirin Sırrı (Astérix: Le secret de la potion magique) - 2018 - TR - BRRip XviD | tt8001346
BroserBros
Asteriks: Sihirli İksirin Sırrı (Astérix: Le secret de la potion magique) - 2018 - TR - BRRip XviD | tt8001346
3
1995
  • Derecelendirme: 0/5 - 0 oy
  • 1
  • 2
  • 3
  • 4
  • 5
Konuyu Okuyanlar:2 Ziyaretçi
Şuan Online!
Filmin Yayınlanma Tarihi: 2018 
WWW
Rapor Et!
Şuan Online!
BroserBros Kurucu Admin
*******
Admin




[avimp3][/avimp3]








 Asteriks: Sihirli İksirin Sırrı



Asteriks filmlerini eminiz ki bir yerlerden duydun. Bu animasyon filminde ise Asteriks ile yolculuğa çıkan Büyüfix’in maceraları konu ediniyor. Sihirli iksir de bildiğiniz gibi galyalılara mükemmel bir güç katar. Ancak büyünün mucidi Büyüfix sakatlandığında işler galyalılara kalır ve bu iş o kadar da kolay değildir…

Asteriks: Sihirli İksirin Sırrı (2018) (Astérix: Le secret de la potion magique) | tt8001346 Filmi Imdb'den 10,000 kişi tarafından oylandı ve 6,7 puan aldı. Bu film için editör puanı 6 olarak belirlendi. İyi Seyirler!

Teknik Detaylar

Kod :
General
Complete name                            : /home/BroserBros/Desktop/4/Asteriks.Sihirli.İksirin.Sırrı.2018.BRRip.XViD.TR.Filmbol.avi
Format                                   : AVI
Format/Info                              : Audio Video Interleave
File size                                : 701 MiB
Duration                                 : 1 h 24 min
Overall bit rate                         : 1 154 kb/s

Video
ID                                       : 0
Format                                   : MPEG-4 Visual
Format profile                           : Advanced [email protected]
Format settings                          : BVOP1
Format settings, BVOP                    : 1
Format settings, QPel                    : No
Format settings, GMC                     : No warppoints
Format settings, Matrix                  : Default (H.263)
Codec ID                                 : XVID
Codec ID/Hint                            : XviD
Duration                                 : 1 h 24 min
Bit rate                                 : 1 012 kb/s
Width                                    : 720 pixels
Height                                   : 304 pixels
Display aspect ratio                     : 2.35:1
Frame rate                               : 24.000 FPS
Color space                              : YUV
Chroma subsampling                       : 4:2:0
Bit depth                                : 8 bits
Scan type                                : Progressive
Compression mode                         : Lossy
Bits/(Pixel*Frame)                       : 0.193
Stream size                              : 615 MiB (88%)
Writing library                          : XviD 67

Audio
ID                                       : 1
Format                                   : MPEG Audio
Format version                           : Version 1
Format profile                           : Layer 3
Format settings                          : Joint stereo
Codec ID                                 : 55
Codec ID/Hint                            : MP3
Duration                                 : 1 h 24 min
Bit rate mode                            : Constant
Bit rate                                 : 128 kb/s
Channel(s)                               : 2 channels
Sampling rate                            : 48.0 kHz
Frame rate                               : 41.667 FPS (1152 SPF)
Compression mode                         : Lossy
Stream size                              : 77.7 MiB (11%)
Alignment                                : Aligned on interleaves
Interleave, duration                     : 24  ms (0.58 video frame)

Film Detayları


 Asteriks: Sihirli İksirin Sırrı

 Asteriks: Sihirli İksirin Sırrı

 Asteriks: Sihirli İksirin Sırrı


Film Fragmanı


Film İndir


Rar Şifresi: filmbol.org



Uptobox ile indir

1Fichier ile indir

1Fichier'den İndiremiyor musun? Tıklayın!












Şuan Offine!
Rapor Et!
Şuan Offine!
abu0101 Üye
*
Üye
  • Konular0
  • Mesajlar7
  • Rep puanı 0
teşekkürler
Şuan Online!
Rapor Et!
Şuan Online!
BroserBros Kurucu Admin
*******
Admin
20.02.2021 Yönetici Notu:

Kırık linkler kontrol edildi, kaldırıldı ve yenilendi. Tüm linkler tamamen çalışır durumda.
Şuan Offine!
Rapor Et!
Şuan Offine!
nazzlıcannn Üye
*
Üye
  • Konular0
  • Mesajlar19
  • Rep puanı 0
bunu da aldım valla. teşekkür ederim.


Hızlı Menü: