⤤ Premium'a Yükselt
Filmbol Forum Film İndir UHD - ULTRA HD - 4K v Karlar Ülkesi 2 (Frozen 2) - 2019 - TR+ORG - UHD (4K) - 10Bit-x265 | tt4520988

Filmbol TV kullanıma açıldı. Bu adresten giriş yapabilirsin: Giriş





Karlar Ülkesi 2 (Frozen 2) - 2019 - TR+ORG - UHD (4K) - 10Bit-x265 | tt4520988
BroserBros
Karlar Ülkesi 2 (Frozen 2) - 2019 - TR+ORG - UHD (4K) - 10Bit-x265 | tt4520988
10
1216
  • Derecelendirme: 5/5 - 1 oy
  • 1
  • 2
  • 3
  • 4
  • 5
Konuyu Okuyanlar:1 Ziyaretçi
Şuan Online!
Filmin Yayınlanma Tarihi: 2019 
WWW
Rapor Et!
Şuan Online!
BroserBros Kurucu Admin
*******
Admin



 Karlar Ülkesi 2



Elsanın aklında ilk günden beri bir soru vardı; Neden büyülü güçlerle doğdum. Bunun cevabını arayan Elsa arkadaşları Anna, Kristoff, Olaf ve Sven ile amansız bir yolculuğa çıkar. Yaşadıkları yer olan Erindel’in çok uzaklarına sadece cevap aramaya giden bu ekip, yolca birden çok sorun ile karşılaşır ve kolay aşılabilecek şeyler değildir…

Karlar Ülkesi 2 (2019) (Frozen 2) | tt4520988 Filmi Imdb'den 140,000 kişi tarafından oylandı ve 6,9 puan aldı. Bu film için editör puanı %73 olarak belirlendi. İyi Seyirler!

Teknik Detaylar

Kod :
General
Unique ID                                : 67222450806959017939650184704835331972 (0x329292B650E82146D6CFD23725862784)
Complete name                            : /home/BroserBros/Desktop/Sorun/Karlar.Ulkesi.2.2019.4K.HDR.UHD.BluRay.x265.DUAL.TR.Filmbol.mkv
Format                                   : Matroska
Format version                           : Version 4
File size                                : 5.06 GiB
Duration                                 : 1 h 43 min
Overall bit rate                         : 7 024 kb/s
Movie name                               : Karlar Ülkesi 2 (2019) - Filmbol.org
Encoded date                             : UTC 2020-03-19 11:00:09
Writing application                      : mkvmerge v35.0.0 ('All The Love In The World') 64-bit
Writing library                          : libebml v1.3.9 + libmatroska v1.5.2

Video
ID                                       : 1
Format                                   : HEVC
Format/Info                              : High Efficiency Video Coding
Format profile                           : Main [email protected]@High
HDR format                               : SMPTE ST 2086, HDR10 compatible
Codec ID                                 : V_MPEGH/ISO/HEVC
Duration                                 : 1 h 43 min
Bit rate                                 : 5 998 kb/s
Width                                    : 3 840 pixels
Height                                   : 1 608 pixels
Display aspect ratio                     : 2.40:1
Frame rate mode                          : Constant
Frame rate                               : 23.976 (24000/1001) FPS
Color space                              : YUV
Chroma subsampling                       : 4:2:0 (Type 2)
Bit depth                                : 10 bits
Bits/(Pixel*Frame)                       : 0.041
Stream size                              : 4.32 GiB (85%)
Title                                    : 4K - Filmbol.org
Writing library                          : x265 3.2+23-52135ffd9bcd:[Windows][GCC 9.2.1][64 bit] 10bit
Encoding settings                        : cpuid=1176575 / frame-threads=5 / numa-pools=36 / wpp / no-pmode / no-pme / no-psnr / no-ssim / log-level=2 / input-csp=1 / input-res=3840x1608 / interlace=0 / total-frames=148499 / level-idc=51 / high-tier=1 / uhd-bd=0 / ref=4 / no-allow-non-conformance / repeat-headers / annexb / aud / hrd / info / hash=0 / no-temporal-layers / no-open-gop / min-keyint=1 / keyint=24 / gop-lookahead=0 / bframes=4 / b-adapt=2 / b-pyramid / bframe-bias=0 / rc-lookahead=25 / lookahead-slices=4 / scenecut=40 / hist-scenecut=0 / radl=0 / no-splice / no-intra-refresh / ctu=64 / min-cu-size=8 / rect / no-amp / max-tu-size=32 / tu-inter-depth=1 / tu-intra-depth=1 / limit-tu=0 / rdoq-level=2 / dynamic-rd=0.00 / no-ssim-rd / signhide / no-tskip / nr-intra=0 / nr-inter=0 / no-constrained-intra / no-strong-intra-smoothing / max-merge=3 / limit-refs=3 / limit-modes / me=3 / subme=3 / merange=57 / temporal-mvp / no-frame-dup / no-hme / weightp / no-weightb / no-analyze-src-pics / deblock=-3:-3 / no-sao / no-sao-non-deblock / rd=4 / selective-sao=0 / no-early-skip / rskip / no-fast-intra / no-tskip-fast / no-cu-lossless / no-b-intra / no-splitrd-skip / rdpenalty=0 / psy-rd=2.00 / psy-rdoq=1.00 / no-rd-refine / no-lossless / cbqpoffs=0 / crqpoffs=0 / rc=crf / crf=17.0 / qcomp=0.60 / qpstep=4 / stats-write=0 / stats-read=0 / vbv-maxrate=160000 / vbv-bufsize=160000 / vbv-init=0.9 / crf-max=0.0 / crf-min=0.0 / ipratio=1.40 / pbratio=1.30 / aq-mode=1 / aq-strength=1.00 / cutree / zone-count=0 / no-strict-cbr / qg-size=32 / no-rc-grain / qpmax=69 / qpmin=0 / no-const-vbv / sar=1 / overscan=0 / videoformat=5 / range=0 / colorprim=9 / transfer=16 / colormatrix=9 / chromaloc=1 / chromaloc-top=2 / chromaloc-bottom=2 / display-window=0 / master-display=G(13250,34500)B(7500,3000)R(34000,16000)WP(15635,16450)L(10000000,1) / cll=0,0 / min-luma=0 / max-luma=1023 / log2-max-poc-lsb=8 / vui-timing-info / vui-hrd-info / slices=1 / no-opt-qp-pps / no-opt-ref-list-length-pps / no-multi-pass-opt-rps / scenecut-bias=0.05 / hist-threshold=0.01 / no-opt-cu-delta-qp / no-aq-motion / hdr / hdr-opt / no-dhdr10-opt / no-idr-recovery-sei / analysis-reuse-level=5 / scale-factor=0 / refine-intra=0 / refine-inter=0 / refine-mv=1 / refine-ctu-distortion=0 / no-limit-sao / ctu-info=0 / no-lowpass-dct / refine-analysis-type=0 / copy-pic=1 / max-ausize-factor=1.0 / no-dynamic-refine / no-single-sei / no-hevc-aq / no-svt / no-field / qp-adaptation-range=1.00 / no-scenecut-aware-qp
Default                                  : Yes
Forced                                   : No
Color range                              : Limited
Color primaries                          : BT.2020
Transfer characteristics                 : PQ
Matrix coefficients                      : BT.2020 non-constant
Mastering display color primaries        : Display P3
Mastering display luminance              : min: 0.0001 cd/m2, max: 1000 cd/m2

Audio #1
ID                                       : 2
Format                                   : AC-3
Format/Info                              : Audio Coding 3
Commercial name                          : Dolby Digital
Codec ID                                 : A_AC3
Duration                                 : 1 h 43 min
Bit rate mode                            : Constant
Bit rate                                 : 384 kb/s
Channel(s)                               : 6 channels
Channel layout                           : L R C LFE Ls Rs
Sampling rate                            : 48.0 kHz
Frame rate                               : 31.250 FPS (1536 SPF)
Compression mode                         : Lossy
Stream size                              : 283 MiB (5%)
Title                                    : Türkçe - Filmbol.org
Language                                 : Turkish
Service kind                             : Complete Main
Default                                  : Yes
Forced                                   : No

Audio #2
ID                                       : 3
Format                                   : AC-3
Format/Info                              : Audio Coding 3
Commercial name                          : Dolby Digital
Codec ID                                 : A_AC3
Duration                                 : 1 h 43 min
Bit rate mode                            : Constant
Bit rate                                 : 640 kb/s
Channel(s)                               : 6 channels
Channel layout                           : L R C LFE Ls Rs
Sampling rate                            : 48.0 kHz
Frame rate                               : 31.250 FPS (1536 SPF)
Compression mode                         : Lossy
Stream size                              : 473 MiB (9%)
Title                                    : İngilizce - Filmbol.org
Language                                 : English
Service kind                             : Complete Main
Default                                  : No
Forced                                   : No

Text
ID                                       : 4
Format                                   : UTF-8
Codec ID                                 : S_TEXT/UTF8
Codec ID/Info                            : UTF-8 Plain Text
Duration                                 : 1 h 41 min
Bit rate                                 : 45 b/s
Count of elements                        : 1312
Stream size                              : 34.2 KiB (0%)
Title                                    : TÜM ALTYAZI
Language                                 : Turkish
Default                                  : No
Forced                                   : No

Film Detayları


 Karlar Ülkesi 2

 Karlar Ülkesi 2

 Karlar Ülkesi 2


Film Fragmanı


Film İndir


Rar Şifresi: filmbol.org










Şuan Offine!
Rapor Et!
Şuan Offine!
Upgrade Eski Premium Üye
***
Eski PR Üye
  • Konular0
  • Mesajlar2
  • Rep puanı 10
hocam uptobox premium üyelik istiyor 1fichier de link ölmüş 
hızlı bir link paylaşırmısınız
çoluk çocuk bekliyor Smile
Şuan Online!
Rapor Et!
Şuan Online!
BroserBros Kurucu Admin
*******
Admin
(06-05-2020, Saat: 22:05)Upgrade Adlı Kullanıcıdan Alıntı: hocam uptobox premium üyelik istiyor 1fichier de link ölmüş 
hızlı bir link paylaşırmısınız
çoluk çocuk bekliyor Smile
Uptobox ve 1fichier'de hiç bir problem yok. Sadece 1Fichier'den indirmek için VPN kullanmanız gerekebilir.
Şuan Offine!
Rapor Et!
Şuan Offine!
Upgrade Eski Premium Üye
***
Eski PR Üye
  • Konular0
  • Mesajlar2
  • Rep puanı 10
(07-05-2020, Saat: 18:37)BroserBros Adlı Kullanıcıdan Alıntı:
(06-05-2020, Saat: 22:05)Upgrade Adlı Kullanıcıdan Alıntı: hocam uptobox premium üyelik istiyor 1fichier de link ölmüş 
hızlı bir link paylaşırmısınız
çoluk çocuk bekliyor Smile
Uptobox ve 1fichier'de hiç bir problem yok. Sadece 1Fichier'den indirmek için VPN kullanmanız gerekebilir.
Hocam şöyle göstereyim isterseniz   https://streamable.com/j9zty2
Şuan Online!
Rapor Et!
Şuan Online!
BroserBros Kurucu Admin
*******
Admin
(08-05-2020, Saat: 23:58)Upgrade Adlı Kullanıcıdan Alıntı:
(07-05-2020, Saat: 18:37)BroserBros Adlı Kullanıcıdan Alıntı: Uptobox ve 1fichier'de hiç bir problem yok. Sadece 1Fichier'den indirmek için VPN kullanmanız gerekebilir.
Hocam şöyle göstereyim isterseniz   https://streamable.com/j9zty2
BC.VC'den hatalanan kaynaktan dolayı yanlış adrese yönlendiriyordu, şimdi düzeltildi.
Ayrıca size 48 saat geçerli bir filmbol premium link gönderdim. Özel mesajları kontrol edin.
Şuan Online!
Rapor Et!
Şuan Online!
BroserBros Kurucu Admin
*******
Admin
28.02.2021 Yönetici Notu:

Premium linkler güncellendi.
Şuan Offine!
Rapor Et!
Şuan Offine!
PuNkDuNk Üye
*
Üye
  • Konular0
  • Mesajlar174
  • Rep puanı 0
Teşekkürler
Şuan Offine!
Rapor Et!
Şuan Offine!
sadece1 Üye
*
Üye
  • Konular0
  • Mesajlar200
  • Rep puanı 0
Teşekkürler.
Şuan Offine!
Rapor Et!
Şuan Offine!
muhammedali Üye
*
Üye
  • Konular0
  • Mesajlar58
  • Rep puanı 0
Teşekkürler.
Şuan Offine!
Rapor Et!
Şuan Offine!
xJerBugra Üye
*
Üye
  • Konular0
  • Mesajlar1
  • Rep puanı 0
Teşekkürler.


Hızlı Menü: