⤤ Premium'a Yükselt
Filmbol Forum Film İndir 3D v Karlar Ülkesi 2 (Frozen 2) - 2019 - TR+ORG - 3D | tt4520988

Filmbol TV kullanıma açıldı. Bu adresten giriş yapabilirsin: Giriş





Karlar Ülkesi 2 (Frozen 2) - 2019 - TR+ORG - 3D | tt4520988
BroserBros
Karlar Ülkesi 2 (Frozen 2) - 2019 - TR+ORG - 3D | tt4520988
11
1301
  • Derecelendirme: 0/5 - 0 oy
  • 1
  • 2
  • 3
  • 4
  • 5
Konuyu Okuyanlar:1 Ziyaretçi
Şuan Online!
Filmin Yayınlanma Tarihi: 2019 
WWW
Rapor Et!
Şuan Online!
BroserBros Kurucu Admin
*******
Admin



 Karlar Ülkesi 2



Elsanın aklında ilk günden beri bir soru vardı; Neden büyülü güçlerle doğdum. Bunun cevabını arayan Elsa arkadaşları Anna, Kristoff, Olaf ve Sven ile amansız bir yolculuğa çıkar. Yaşadıkları yer olan Erindel’in çok uzaklarına sadece cevap aramaya giden bu ekip, yolca birden çok sorun ile karşılaşır ve kolay aşılabilecek şeyler değildir…

Karlar Ülkesi 2 (2019) (Frozen 2) | tt4520988 Filmi Imdb'den 140,000 kişi tarafından oylandı ve 6,9 puan aldı. Bu film için editör puanı %73 olarak belirlendi. İyi Seyirler!

Teknik Detaylar

Kod :
General
Unique ID                                : 2650931108685604481437952564902985803 (0x1FE8CFEA00E6F62923743E4C4E7804B)
Complete name                            : /home/BroserBros/Desktop/Sorun/Karlar.Ülkesi.2.2019.3D.BluRay.x264.DUAL.TR.ENG.Filmbol.mkv
Format                                   : Matroska
Format version                           : Version 4
File size                                : 1.92 GiB
Duration                                 : 1 h 43 min
Overall bit rate                         : 2 663 kb/s
Movie name                               : Karlar Ülkesi 2 (2019) - Filmbol.org
Encoded date                             : UTC 2020-03-19 11:28:18
Writing application                      : mkvmerge v35.0.0 ('All The Love In The World') 64-bit
Writing library                          : libebml v1.3.9 + libmatroska v1.5.2

Video
ID                                       : 1
Format                                   : AVC
Format/Info                              : Advanced Video Codec
Format profile                           : [email protected]
Format settings                          : CABAC / 2 Ref Frames
Format settings, CABAC                   : Yes
Format settings, Reference frames        : 2 frames
Codec ID                                 : V_MPEG4/ISO/AVC
Duration                                 : 1 h 43 min
Bit rate                                 : 2 084 kb/s
Width                                    : 1 920 pixels
Height                                   : 808 pixels
Display aspect ratio                     : 2.40:1
Frame rate mode                          : Constant
Frame rate                               : 23.976 (24000/1001) FPS
Color space                              : YUV
Chroma subsampling                       : 4:2:0
Bit depth                                : 8 bits
Scan type                                : Progressive
Bits/(Pixel*Frame)                       : 0.056
Stream size                              : 1.50 GiB (78%)
Title                                    : 3D - Filmbol.org
Language                                 : English
Default                                  : Yes
Forced                                   : No

Audio #1
ID                                       : 2
Format                                   : AC-3
Format/Info                              : Audio Coding 3
Commercial name                          : Dolby Digital
Codec ID                                 : A_AC3
Duration                                 : 1 h 43 min
Bit rate mode                            : Constant
Bit rate                                 : 384 kb/s
Channel(s)                               : 6 channels
Channel layout                           : L R C LFE Ls Rs
Sampling rate                            : 48.0 kHz
Frame rate                               : 31.250 FPS (1536 SPF)
Compression mode                         : Lossy
Stream size                              : 283 MiB (14%)
Title                                    : Türkçe - Filmbol.org
Language                                 : Turkish
Service kind                             : Complete Main
Default                                  : Yes
Forced                                   : No

Audio #2
ID                                       : 3
Format                                   : AC-3
Format/Info                              : Audio Coding 3
Commercial name                          : Dolby Digital
Codec ID                                 : A_AC3
Duration                                 : 1 h 43 min
Bit rate mode                            : Constant
Bit rate                                 : 192 kb/s
Channel(s)                               : 2 channels
Channel layout                           : L R
Sampling rate                            : 48.0 kHz
Frame rate                               : 31.250 FPS (1536 SPF)
Compression mode                         : Lossy
Stream size                              : 142 MiB (7%)
Title                                    : İngilizce - Filmbol.org
Language                                 : English
Service kind                             : Complete Main
Default                                  : No
Forced                                   : No

Text
ID                                       : 4
Format                                   : UTF-8
Codec ID                                 : S_TEXT/UTF8
Codec ID/Info                            : UTF-8 Plain Text
Duration                                 : 1 h 41 min
Bit rate                                 : 45 b/s
Count of elements                        : 1312
Stream size                              : 34.2 KiB (0%)
Title                                    : Türkçe Altyazı
Language                                 : Turkish
Default                                  : No
Forced                                   : No

Film Detayları


 Karlar Ülkesi 2

 Karlar Ülkesi 2

 Karlar Ülkesi 2


Film Fragmanı


Film İndir


Rar Şifresi: filmbol.org


Uptobox ile indir

1Fichier ile indir

1Fichier'den İndiremiyor musun? Tıklayın!












Şuan Offine!
Rapor Et!
Şuan Offine!
atsf1 Uzman Üye
**
Uzman Üye
  • Konular0
  • Mesajlar7
  • Rep puanı 0
teşekkür ederiz
Şuan Online!
Rapor Et!
Şuan Online!
BroserBros Kurucu Admin
*******
Admin
28.02.2021 Yönetici Notu:

Kırık linkler kontrol edildi, kaldırıldı ve yenilendi. Tüm linkler tamamen çalışır durumda.
Şuan Offine!
Rapor Et!
Şuan Offine!
mussa Süper Üye
***
Super Üye
  • Konular0
  • Mesajlar21
  • Rep puanı 0
Mükemmel film harika bence
Şuan Offine!
Rapor Et!
Şuan Offine!
programmers Üye
*
Üye
  • Konular0
  • Mesajlar6
  • Rep puanı 0
Teşekkürler.
Şuan Offine!
Rapor Et!
Şuan Offine!
ruby2345 Üye
*
Üye
  • Konular0
  • Mesajlar12
  • Rep puanı 0
Teşekkürler.
Şuan Offine!
Rapor Et!
Şuan Offine!
mehmetsakirarslan Üye
*
Üye
  • Konular0
  • Mesajlar29
  • Rep puanı 0
Teşekkürler.
Şuan Offine!
Rapor Et!
Şuan Offine!
trmntrmn Süper Üye
***
Super Üye
  • Konular0
  • Mesajlar802
  • Rep puanı 11
Teşekkürler.
Şuan Offine!
Rapor Et!
Şuan Offine!
drbaros Üye
*
Üye
  • Konular0
  • Mesajlar2
  • Rep puanı 0
Teşekkürler.
Şuan Offine!
Rapor Et!
Şuan Offine!
rkose Üye
*
Üye
  • Konular0
  • Mesajlar2
  • Rep puanı 0
Teşekkürler.


Hızlı Menü: