⤤ Premium'a Yükselt
Filmbol Forum Film İndir 720P v Büyükbabalar Yuvada (Grand-Daddy Day Care) Türkçe Dublaj BLURAY 720P indir

Filmbol TV kullanıma açıldı. Bu adresten giriş yapabilirsin: Giriş





Büyükbabalar Yuvada (Grand-Daddy Day Care) Türkçe Dublaj BLURAY 720P indir
BroserBros
Büyükbabalar Yuvada (Grand-Daddy Day Care) Türkçe Dublaj BLURAY 720P indir
1
465
  • Derecelendirme: 0/5 - 0 oy
  • 1
  • 2
  • 3
  • 4
  • 5
Konuyu Okuyanlar:2 Ziyaretçi
Şuan Online!
Filmin Yayınlanma Tarihi: 2019 
WWW
Rapor Et!
Şuan Online!
BroserBros Kurucu Admin
*******
Admin



[süre]96 dakika[/süre]





 Büyükbabalar Yuvada



Bir kişi ki galiba yaşlılarla arası pek iyi olsa gerek, evini büyük babalar için bir kreşe çevirmeye karar verir. Bunda sorun yok ancak yaşlı insanlar ile uğraşmak hiç de kolay değil. Adamımız bunun farkında değildir ve bir çok sorun ile karşılaşacaktır. Merak etmeyin, bu sorunlar oldukça gülünç...

Büyükbabalar Yuvada (2019) (Grand-Daddy Day Care) Filmi Imdb'den 500 kişi tarafından oylandı ve 4,8 puan aldı. Bu film için editör puanı 5,0 olarak belirlendi. İyi Seyirler!

Teknik Detaylar

Kod :
General
Unique ID                                : 92430455914988605535771684581792028773 (0x45897551F82BE5130F42BF8D3E781865)
Complete name                            : /root/Desktop/2/Büyük.Babalar.Yuvada.2019.720p.WEB-DL.x264.TR.Filmbol.mkv
Format                                   : Matroska
Format version                           : Version 4 / Version 2
File size                                : 1.09 GiB
Duration                                 : 1h 36mn
Overall bit rate                         : 1 617 Kbps
Movie name                               : Büyük Babalar Yuvada (2019) - Filmbol.org
Encoded date                             : UTC 2020-03-16 15:54:26
Writing application                      : mkvmerge v35.0.0 ('All The Love In The World') 64-bit
Writing library                          : libebml v1.3.9 + libmatroska v1.5.2

Video
ID                                       : 1
Format                                   : AVC
Format/Info                              : Advanced Video Codec
Format profile                           : [email protected]
Format settings, CABAC                   : Yes
Format settings, ReFrames                : 2 frames
Codec ID                                 : V_MPEG4/ISO/AVC
Duration                                 : 1h 36mn
Bit rate                                 : 1 423 Kbps
Width                                    : 1 280 pixels
Height                                   : 716 pixels
Display aspect ratio                     : 16:9
Frame rate mode                          : Constant
Frame rate                               : 23.976 (24000/1001) fps
Color space                              : YUV
Chroma subsampling                       : 4:2:0
Bit depth                                : 8 bits
Scan type                                : Progressive
Bits/(Pixel*Frame)                       : 0.065
Stream size                              : 978 MiB (88%)
Title                                    : 720P - Filmbol.org
Language                                 : English
Default                                  : Yes
Forced                                   : No

Audio
ID                                       : 2
Format                                   : AC-3
Format/Info                              : Audio Coding 3
Mode extension                           : CM (complete main)
Format settings, Endianness              : Big
Codec ID                                 : A_AC3
Duration                                 : 1h 36mn
Bit rate mode                            : Constant
Bit rate                                 : 192 Kbps
Channel(s)                               : 2 channels
Channel positions                        : Front: L R
Sampling rate                            : 48.0 KHz
Frame rate                               : 31.250 fps (1536 spf)
Compression mode                         : Lossy
Stream size                              : 132 MiB (12%)
Title                                    : Türkçe - Filmbol.org
Language                                 : Turkish
Default                                  : Yes
Forced                                   : No

Film Detayları


 Büyükbabalar Yuvada

 Büyükbabalar Yuvada

 Büyükbabalar Yuvada


Film Fragmanı


Film İndir


Rar Şifresi: filmbol.org


Uptobox ile indir

1Fichier ile indir

1Fichier'den İndiremiyor musun? Tıklayın!








Şuan Online!
Rapor Et!
Şuan Online!
BroserBros Kurucu Admin
*******
Admin
27.02.2021 Yönetici Notu:

Kırık linkler kontrol edildi, kaldırıldı ve yenilendi. Tüm linkler tamamen çalışır durumda.


Hızlı Menü: