⤤ Premium'a Yükselt
Filmbol Forum Film İndir BRRip XviD v Büyükbabalar Yuvada (Grand-Daddy Day Care) Türkçe Dublaj BRRip XviD indir

Filmbol TV kullanıma açıldı. Bu adresten giriş yapabilirsin: Giriş





Büyükbabalar Yuvada (Grand-Daddy Day Care) Türkçe Dublaj BRRip XviD indir
BroserBros
Büyükbabalar Yuvada (Grand-Daddy Day Care) Türkçe Dublaj BRRip XviD indir
1
390
  • Derecelendirme: 0/5 - 0 oy
  • 1
  • 2
  • 3
  • 4
  • 5
Konuyu Okuyanlar:1 Ziyaretçi
Şuan Online!
Filmin Yayınlanma Tarihi: 2019 
WWW
Rapor Et!
Şuan Online!
BroserBros Kurucu Admin
*******
Admin



[süre]96 dakika[/süre]





 Büyükbabalar Yuvada



Bir kişi ki galiba yaşlılarla arası pek iyi olsa gerek, evini büyük babalar için bir kreşe çevirmeye karar verir. Bunda sorun yok ancak yaşlı insanlar ile uğraşmak hiç de kolay değil. Adamımız bunun farkında değildir ve bir çok sorun ile karşılaşacaktır. Merak etmeyin, bu sorunlar oldukça gülünç...

Büyükbabalar Yuvada (2019) (Grand-Daddy Day Care) Filmi Imdb'den 500 kişi tarafından oylandı ve 4,8 puan aldı. Bu film için editör puanı 5,0 olarak belirlendi. İyi Seyirler!

Teknik Detaylar

Kod :
General
Complete name                            : /root/Desktop/2/Büyük.Babalar.Yuvada.2019.HDRip.XViD.TR.Filmbol.avi
Format                                   : AVI
Format/Info                              : Audio Video Interleave
File size                                : 998 MiB
Duration                                 : 1h 36mn
Overall bit rate                         : 1 452 Kbps

Video
ID                                       : 0
Format                                   : MPEG-4 Visual
Format profile                           : Advanced [email protected]
Format settings, BVOP                    : 1
Format settings, QPel                    : No
Format settings, GMC                     : No warppoints
Format settings, Matrix                  : Default (MPEG)
Codec ID                                 : XVID
Codec ID/Hint                            : XviD
Duration                                 : 1h 36mn
Bit rate                                 : 1 311 Kbps
Width                                    : 720 pixels
Height                                   : 404 pixels
Display aspect ratio                     : 16:9
Frame rate                               : 23.976 (23976/1000) fps
Color space                              : YUV
Chroma subsampling                       : 4:2:0
Bit depth                                : 8 bits
Scan type                                : Progressive
Compression mode                         : Lossy
Bits/(Pixel*Frame)                       : 0.188
Stream size                              : 901 MiB (90%)
Writing library                          : XviD 64

Audio
ID                                       : 1
Format                                   : MPEG Audio
Format version                           : Version 1
Format profile                           : Layer 3
Mode                                     : Joint stereo
Codec ID                                 : 55
Codec ID/Hint                            : MP3
Duration                                 : 1h 36mn
Bit rate mode                            : Constant
Bit rate                                 : 128 Kbps
Channel(s)                               : 2 channels
Sampling rate                            : 48.0 KHz
Compression mode                         : Lossy
Stream size                              : 88.0 MiB (9%)
Alignment                                : Aligned on interleaves
Interleave, duration                     : 24 ms (0.58 video frame)

Film Detayları


 Büyükbabalar Yuvada

 Büyükbabalar Yuvada

 Büyükbabalar Yuvada


Film Fragmanı


Film İndir


Rar Şifresi: filmbol.org



Uptobox ile indir

1Fichier ile indir

1Fichier'den İndiremiyor musun? Tıklayın!








Şuan Online!
Rapor Et!
Şuan Online!
BroserBros Kurucu Admin
*******
Admin
27.02.2021 Yönetici Notu:

Kırık linkler kontrol edildi, kaldırıldı ve yenilendi. Tüm linkler tamamen çalışır durumda.


Hızlı Menü: