⤤ Premium'a Yükselt
Filmbol Forum Film İndir 1080P v İlahi Komedi (Religulous) - 2008 - ORG - 1080P - TR+ORG | tt0815241

Filmbol TV kullanıma açıldı. Bu adresten giriş yapabilirsin: Giriş





İlahi Komedi (Religulous) - 2008 - ORG - 1080P - TR+ORG | tt0815241
BroserBros
İlahi Komedi (Religulous) - 2008 - ORG - 1080P - TR+ORG | tt0815241
8
824
  • Derecelendirme: 0/5 - 0 oy
  • 1
  • 2
  • 3
  • 4
  • 5
Konuyu Okuyanlar:1 Ziyaretçi
Şuan Online!
Filmin Yayınlanma Tarihi: 2008 
WWW
Rapor Et!
Şuan Online!
BroserBros Kurucu Admin
*******
Admin



 İlahi Komedi



Baştan söyleyeyim, eğer dinler hakkında kalıcı görüşleriniz varsa bu belgesel sizi pek memnun etmeyebilir. Hatta bakış açınıza göre sizi sinir bile edebilir. Ancak eğer bu konuda yeni sözler duymaya açıksanız sizin için mükemmel bir belgesel olabilir! Religulous (İlahi Komedi), yorumcu ve göstermen Bill Maher’in sunumu eşliğinde tüm dinleri yeniden sorguluyor. Hristiyanlıkta papa’ya, Müslümanlıkta camii hocasına kadar herkesle konuşuyor ve sorularına cevaplar arıyor…

İlahi Komedi (2008) (Religulous) | tt0815241 Filmi Imdb'den 60,000 kişi tarafından oylandı ve 7,6 puan aldı. Bu film için editör puanı %85 olarak belirlendi. İyi Seyirler!

Teknik Detaylar

Kod :
General
Unique ID                                : 296357632314295523093698847076165349406 (0xDEF467618BB7EB626E25DA81465BF01E)
Complete name                            : /home/BroserBros/Desktop/Y-Sorunlu/İlahi.Komedi.2008.1080p.BluRay.x264.TR.ENG.Filmbol.mkv
Format                                   : Matroska
Format version                           : Version 4
File size                                : 1.75 GiB
Duration                                 : 1 h 40 min
Overall bit rate                         : 2 475 kb/s
Movie name                               : İlahi Komedi - Religulous - 2008 | Filmbol.org
Encoded date                             : UTC 2021-04-11 17:01:27
Writing application                      : mkvmerge v53.0.0 ('Fool's Gold') 64-bit
Writing library                          : libebml v1.4.1 + libmatroska v1.6.2

Video
ID                                       : 1
Format                                   : AVC
Format/Info                              : Advanced Video Codec
Format profile                           : [email protected]
Format settings                          : CABAC / 4 Ref Frames
Format settings, CABAC                   : Yes
Format settings, Reference frames        : 4 frames
Codec ID                                 : V_MPEG4/ISO/AVC
Duration                                 : 1 h 40 min
Bit rate                                 : 2 150 kb/s
Width                                    : 1 920 pixels
Height                                   : 1 072 pixels
Display aspect ratio                     : 16:9
Frame rate mode                          : Constant
Frame rate                               : 23.976 (24000/1001) FPS
Color space                              : YUV
Chroma subsampling                       : 4:2:0
Bit depth                                : 8 bits
Scan type                                : Progressive
Bits/(Pixel*Frame)                       : 0.044
Stream size                              : 1.52 GiB (87%)
Title                                    : 1080P - Filmbol.org
Writing library                          : x264 core 157
Encoding settings                        : cabac=1 / ref=4 / deblock=1:-1:-1 / analyse=0x3:0x133 / me=umh / subme=9 / psy=1 / psy_rd=1.00:0.15 / mixed_ref=1 / me_range=24 / chroma_me=1 / trellis=2 / 8x8dct=1 / cqm=0 / deadzone=21,11 / fast_pskip=0 / chroma_qp_offset=-3 / threads=18 / lookahead_threads=1 / sliced_threads=0 / nr=0 / decimate=1 / interlaced=0 / bluray_compat=0 / constrained_intra=0 / bframes=3 / b_pyramid=2 / b_adapt=2 / b_bias=0 / direct=3 / weightb=1 / open_gop=0 / weightp=2 / keyint=250 / keyint_min=23 / scenecut=40 / intra_refresh=0 / rc_lookahead=60 / rc=2pass / mbtree=1 / bitrate=2150 / ratetol=1.0 / qcomp=0.60 / qpmin=0 / qpmax=69 / qpstep=4 / cplxblur=20.0 / qblur=0.5 / vbv_maxrate=31250 / vbv_bufsize=31250 / nal_hrd=none / filler=0 / ip_ratio=1.40 / aq=1:1.00
Default                                  : Yes
Forced                                   : No

Audio #1
ID                                       : 2
Format                                   : AC-3
Format/Info                              : Audio Coding 3
Commercial name                          : Dolby Digital
Codec ID                                 : A_AC3
Duration                                 : 1 h 40 min
Bit rate mode                            : Constant
Bit rate                                 : 192 kb/s
Channel(s)                               : 2 channels
Channel layout                           : L R
Sampling rate                            : 48.0 kHz
Frame rate                               : 31.250 FPS (1536 SPF)
Compression mode                         : Lossy
Delay relative to video                  : -43 ms
Stream size                              : 139 MiB (8%)
Title                                    : Türkçe - Filmbol.org
Language                                 : Turkish
Service kind                             : Complete Main
Default                                  : Yes
Forced                                   : No

Audio #2
ID                                       : 3
Format                                   : AAC LC
Format/Info                              : Advanced Audio Codec Low Complexity
Codec ID                                 : A_AAC-2
Duration                                 : 1 h 40 min
Bit rate                                 : 132 kb/s
Channel(s)                               : 2 channels
Channel layout                           : L R
Sampling rate                            : 48.0 kHz
Frame rate                               : 46.875 FPS (1024 SPF)
Compression mode                         : Lossy
Delay relative to video                  : -43 ms
Stream size                              : 94.3 MiB (5%)
Title                                    : Orjinal Dil - Filmbol.org
Language                                 : English
Default                                  : No
Forced                                   : No

Text #1
ID                                       : 4
Format                                   : UTF-8
Codec ID                                 : S_TEXT/UTF8
Codec ID/Info                            : UTF-8 Plain Text
Duration                                 : 1 h 40 min
Bit rate                                 : 127 b/s
Count of elements                        : 1735
Stream size                              : 93.6 KiB (0%)
Title                                    : Türkçe Altyazı - Filmbol.org
Language                                 : Turkish
Default                                  : No
Forced                                   : Yes

Text #2
ID                                       : 5
Format                                   : UTF-8
Codec ID                                 : S_TEXT/UTF8
Codec ID/Info                            : UTF-8 Plain Text
Duration                                 : 1 min 25 s
Bit rate                                 : 130 b/s
Count of elements                        : 27
Stream size                              : 1.36 KiB (0%)
Title                                    : Türkçe FORCED - Filmbol.org
Language                                 : Turkish
Default                                  : Yes
Forced                                   : No

Film Detayları


 İlahi Komedi

 İlahi Komedi

 İlahi Komedi


Film Fragmanı


Film İndir


Rar Şifresi: filmbol.org




Uptobox ile indir

1Fichier ile indir

1Fichier'den İndiremiyor musun? Tıklayın!












Şuan Online!
Rapor Et!
Şuan Online!
BroserBros Kurucu Admin
*******
Admin
28.02.2021 Yönetici Notu:

Kırık linkler kontrol edildi, kaldırıldı ve yenilendi. Tüm linkler tamamen çalışır durumda.
Şuan Offine!
Rapor Et!
Şuan Offine!
batuli Üye
*
Üye
  • Konular0
  • Mesajlar1
  • Rep puanı 0
çok başarılı film harikaydı
Şuan Offine!
Rapor Et!
Şuan Offine!
jamkuoo Üye
*
Üye
  • Konular0
  • Mesajlar11
  • Rep puanı 0
çok teşekkür ederim elinize emeğinize sağlık.
Şuan Offine!
Rapor Et!
Şuan Offine!
angelord Üye
*
Üye
  • Konular1
  • Mesajlar137
  • Rep puanı 0
teşekkürler
Şuan Offine!
Rapor Et!
Şuan Offine!
brkktl Üye
*
Üye
  • Konular0
  • Mesajlar11
  • Rep puanı 0
Teşekkürler.
Şuan Online!
Rapor Et!
Şuan Online!
BySauron35 Üye
*
Üye
  • Konular0
  • Mesajlar47
  • Rep puanı 0
Teşekkürler.
Şuan Offine!
Rapor Et!
Şuan Offine!
SOLOTOF Üye
*
Üye
  • Konular0
  • Mesajlar113
  • Rep puanı 0
Teşekkürler.
Şuan Offine!
Rapor Et!
Şuan Offine!
askbocegi31 Üye
*
Üye
  • Konular0
  • Mesajlar100
  • Rep puanı 0
Teşekkürler.


Hızlı Menü: