⤤ Premium'a Yükselt
Filmbol Forum Film İndir BRRip XviD v İlahi Komedi (Religulous) - 2008 - TR - BRRip XviD | tt0815241

Filmbol TV kullanıma açıldı. Bu adresten giriş yapabilirsin: Giriş





İlahi Komedi (Religulous) - 2008 - TR - BRRip XviD | tt0815241
BroserBros
İlahi Komedi (Religulous) - 2008 - TR - BRRip XviD | tt0815241
1
595
  • Derecelendirme: 0/5 - 0 oy
  • 1
  • 2
  • 3
  • 4
  • 5
Konuyu Okuyanlar:2 Ziyaretçi
Şuan Online!
Filmin Yayınlanma Tarihi: 2008 
WWW
Rapor Et!
Şuan Online!
BroserBros Kurucu Admin
*******
Admin



 İlahi Komedi



Baştan söyleyeyim, eğer dinler hakkında kalıcı görüşleriniz varsa bu belgesel sizi pek memnun etmeyebilir. Hatta bakış açınıza göre sizi sinir bile edebilir. Ancak eğer bu konuda yeni sözler duymaya açıksanız sizin için mükemmel bir belgesel olabilir! Religulous (İlahi Komedi), yorumcu ve göstermen Bill Maher’in sunumu eşliğinde tüm dinleri yeniden sorguluyor. Hristiyanlıkta papa’ya, Müslümanlıkta camii hocasına kadar herkesle konuşuyor ve sorularına cevaplar arıyor…

İlahi Komedi (2008) (Religulous) | tt0815241 Filmi Imdb'den 60,000 kişi tarafından oylandı ve 7,6 puan aldı. Bu film için editör puanı %85 olarak belirlendi. İyi Seyirler!

Teknik Detaylar

Kod :
General
Complete name                            : /home/BroserBros/Desktop/10/İlahi.Komedi.2008.BRRip.XViD.TR.Filmbol.avi
Format                                   : AVI
Format/Info                              : Audio Video Interleave
File size                                : 685 MiB
Duration                                 : 1 h 35 min
Overall bit rate                         : 1 003 kb/s

Video
ID                                       : 0
Format                                   : MPEG-4 Visual
Format profile                           : Advanced [email protected]
Format settings                          : BVOP2 / QPel
Format settings, BVOP                    : 2
Format settings, QPel                    : Yes
Format settings, GMC                     : No warppoints
Format settings, Matrix                  : Default (H.263)
Codec ID                                 : XVID
Codec ID/Hint                            : XviD
Duration                                 : 1 h 35 min
Bit rate                                 : 862 kb/s
Width                                    : 640 pixels
Height                                   : 352 pixels
Display aspect ratio                     : 16:9
Frame rate                               : 25.000 FPS
Original frame rate                      : 23.976 FPS
Color space                              : YUV
Chroma subsampling                       : 4:2:0
Bit depth                                : 8 bits
Scan type                                : Progressive
Compression mode                         : Lossy
Bits/(Pixel*Frame)                       : 0.153
Stream size                              : 589 MiB (86%)
Writing library                          : XviD 1.2.1 (UTC 2008-12-04)

Audio
ID                                       : 1
Format                                   : MPEG Audio
Format version                           : Version 1
Format profile                           : Layer 3
Format settings                          : Joint stereo / MS Stereo
Codec ID                                 : 55
Codec ID/Hint                            : MP3
Duration                                 : 1 h 35 min
Bit rate mode                            : Constant
Bit rate                                 : 128 kb/s
Channel(s)                               : 2 channels
Sampling rate                            : 48.0 kHz
Compression mode                         : Lossy
Stream size                              : 87.2 MiB (13%)
Alignment                                : Aligned on interleaves
Interleave, duration                     : 24  ms (0.60 video frame)

Film Detayları


 İlahi Komedi

 İlahi Komedi

 İlahi Komedi


Film Fragmanı


Film İndir


Rar Şifresi: filmbol.org



Uptobox ile indir

1Fichier ile indir

1Fichier'den İndiremiyor musun? Tıklayın!












Şuan Online!
Rapor Et!
Şuan Online!
BroserBros Kurucu Admin
*******
Admin
28.02.2021 Yönetici Notu:

Kırık linkler kontrol edildi, kaldırıldı ve yenilendi. Tüm linkler tamamen çalışır durumda.


Hızlı Menü: