⤤ Premium'a Yükselt

Merhaba, Ziyaretçi. Mega linklerinin bir kısmı deaktif halde ve yenileme çalışmalarına başladık. Bu süre içinde ikinci duyuruya kadar mega linklerini raporlamayın!! x

Filmbol Forum Film İndir 1080P v Gladyatör (Gladiator) - 2000 - TR+ORG - 1080P | tt0172495

Filmbol TV kullanıma açıldı. Bu adresten giriş yapabilirsin: Giriş





Gladyatör (Gladiator) - 2000 - TR+ORG - 1080P | tt0172495
BroserBros
Gladyatör (Gladiator) - 2000 - TR+ORG - 1080P | tt0172495
17
1579
  • Derecelendirme: 0/5 - 0 oy
  • 1
  • 2
  • 3
  • 4
  • 5
Konuyu Okuyanlar:3 Ziyaretçi
Şuan Online!
Filmin Yayınlanma Tarihi: 2000 
WWW
Rapor Et!
Şuan Online!
BroserBros Kurucu Admin
*******
Admin



 Gladyatör



Maximus işini layikı ile yapan bir generaldir. Onun işlerini bu şekilde iyi yapması tabii ki İmparatorluk tarafından ödüllendirilir ve gitgide yükselmektedir. Fakat tahtın varisi Commodus bu yükselişi hoşnut karşılamaz. Ayrıca babasının da Maximus'ı desteklemesi Commodus'da kıskançlık krizleri yaratır ve emri ile Maximus'un ailesinin tamamı öldürülür ve kendisi ise arenaya gönderir. Herşeyini kaybetmiş olan Maximus'un tek hedefi, intikam almaktır.

Gladyatör (2000) (Gladiator) | tt0172495 Filmi Imdb'den 1,400,000 kişi tarafından oylandı ve 8,5 puan aldı. Bu film için editör puanı %97 olarak belirlendi. İyi Seyirler!

Teknik Detaylar

Kod :
General
Unique ID                                : 198337431773994816992148185256980769005 (0x9536665F7EBF5DFCC719AB126EC9E8ED)
Complete name                            : /home/BroserBros/Desktop/3/Gladyatör.2000.EXTENDED.1080p.BluRay.x264.TR.ENG.Filmbol.mkv
Format                                   : Matroska
Format version                           : Version 4
File size                                : 2.37 GiB
Duration                                 : 2 h 50 min
Overall bit rate                         : 1 986 kb/s
Movie name                               : Gladyatör - Gladiator - 2000 | Filmbol.org
Encoded date                             : UTC 2021-02-24 12:22:08
Writing application                      : mkvmerge v53.0.0 ('Fool's Gold') 64-bit
Writing library                          : libebml v1.4.1 + libmatroska v1.6.2

Video
ID                                       : 1
Format                                   : AVC
Format/Info                              : Advanced Video Codec
Format profile                           : [email protected]
Format settings                          : CABAC / 4 Ref Frames
Format settings, CABAC                   : Yes
Format settings, Reference frames        : 4 frames
Codec ID                                 : V_MPEG4/ISO/AVC
Duration                                 : 2 h 50 min
Bit rate                                 : 1 249 kb/s
Width                                    : 1 920 pixels
Height                                   : 816 pixels
Display aspect ratio                     : 2.35:1
Frame rate mode                          : Constant
Frame rate                               : 23.976 (24000/1001) FPS
Color space                              : YUV
Chroma subsampling                       : 4:2:0
Bit depth                                : 8 bits
Scan type                                : Progressive
Bits/(Pixel*Frame)                       : 0.033
Stream size                              : 1.49 GiB (63%)
Title                                    : 1080P - Filmbol.org
Writing library                          : x264 core 116 r2074 2641b9e
Encoding settings                        : cabac=1 / ref=3 / deblock=1:-2:-1 / analyse=0x3:0x113 / me=umh / subme=5 / psy=1 / psy_rd=1.00:0.00 / mixed_ref=1 / me_range=12 / chroma_me=1 / trellis=1 / 8x8dct=1 / cqm=0 / deadzone=21,11 / fast_pskip=1 / chroma_qp_offset=0 / threads=3 / sliced_threads=0 / nr=0 / decimate=1 / interlaced=0 / bluray_compat=0 / constrained_intra=0 / bframes=16 / b_pyramid=2 / b_adapt=1 / b_bias=0 / direct=3 / weightb=1 / open_gop=0 / weightp=2 / keyint=250 / keyint_min=23 / scenecut=40 / intra_refresh=0 / rc=2pass / mbtree=0 / bitrate=1249 / ratetol=1.0 / qcomp=0.60 / qpmin=10 / qpmax=51 / qpstep=4 / cplxblur=20.0 / qblur=0.5 / ip_ratio=1.40 / pb_ratio=1.30 / aq=2:1.00
Default                                  : Yes
Forced                                   : No

Audio #1
ID                                       : 2
Format                                   : AC-3
Format/Info                              : Audio Coding 3
Commercial name                          : Dolby Digital
Codec ID                                 : A_AC3
Duration                                 : 2 h 50 min
Bit rate mode                            : Constant
Bit rate                                 : 640 kb/s
Channel(s)                               : 6 channels
Channel layout                           : L R C LFE Ls Rs
Sampling rate                            : 48.0 kHz
Frame rate                               : 31.250 FPS (1536 SPF)
Compression mode                         : Lossy
Delay relative to video                  : 100 ms
Stream size                              : 783 MiB (32%)
Title                                    : Türkçe - Filmbol.org
Language                                 : Turkish
Service kind                             : Complete Main
Default                                  : Yes
Forced                                   : No

Audio #2
ID                                       : 3
Format                                   : AAC LC
Format/Info                              : Advanced Audio Codec Low Complexity
Codec ID                                 : A_AAC-2
Duration                                 : 2 h 50 min
Bit rate                                 : 96.0 kb/s
Channel(s)                               : 2 channels
Channel layout                           : L R
Sampling rate                            : 48.0 kHz
Frame rate                               : 46.875 FPS (1024 SPF)
Compression mode                         : Lossy
Stream size                              : 117 MiB (5%)
Title                                    : İngilizce - Filmbol.org
Language                                 : English
Default                                  : No
Forced                                   : No

Text
ID                                       : 4
Format                                   : UTF-8
Codec ID                                 : S_TEXT/UTF8
Codec ID/Info                            : UTF-8 Plain Text
Duration                                 : 2 h 49 min
Bit rate                                 : 33 b/s
Count of elements                        : 1336
Stream size                              : 41.5 KiB (0%)
Title                                    : Türkçe Altyazı - Filmbol.org
Language                                 : Turkish
Default                                  : Yes
Forced                                   : No

Film Detayları


 Gladyatör

 Gladyatör

 Gladyatör


Film Fragmanı


Film İndir


Rar Şifresi: filmbol.org


Uptobox ile indir

1Fichier ile indir

1Fichier'den İndiremiyor musun? Tıklayın!












Şuan Online!
Rapor Et!
Şuan Online!
BroserBros Kurucu Admin
*******
Admin
27.02.2021 Yönetici Notu:

Kırık linkler kontrol edildi, kaldırıldı ve yenilendi. Tüm linkler tamamen çalışır durumda.
Şuan Offine!
Rapor Et!
Şuan Offine!
engin Uzman Üye
**
Uzman Üye
  • Konular0
  • Mesajlar9
  • Rep puanı 0
tesekkürler
Şuan Offine!
Rapor Et!
Şuan Offine!
Perspektif Üye
*
Üye
  • Konular0
  • Mesajlar18
  • Rep puanı 0
Teşekkürler
Şuan Offine!
Rapor Et!
Şuan Offine!
PYRO Üye
*
Üye
  • Konular0
  • Mesajlar24
  • Rep puanı 0
Teşekkürler.
Şuan Offine!
Rapor Et!
Şuan Offine!
ruobab Üye
*
Üye
  • Konular0
  • Mesajlar34
  • Rep puanı 0
Teşekkürler.
Şuan Offine!
Rapor Et!
Şuan Offine!
Aspirin46 Süper Üye
***
Super Üye
  • Konular0
  • Mesajlar135
  • Rep puanı 0
Teşekkürler.
Şuan Offine!
Rapor Et!
Şuan Offine!
sandokan Üye
*
Üye
  • Konular0
  • Mesajlar88
  • Rep puanı 0
Teşekkürler.
Şuan Online!
Rapor Et!
Şuan Online!
TORUKMAKTO Üye
*
Üye
  • Konular4
  • Mesajlar241
  • Rep puanı 14
bir efsaneyi daha arşive ekleyelim bakalım teşekkürler Smile
Şuan Online!
Rapor Et!
Şuan Online!
rasgun Üye
*
Üye
  • Konular0
  • Mesajlar35
  • Rep puanı 0
Teşekkürler.


Hızlı Menü: