⤤ Premium'a Yükselt
Filmbol Forum Film İndir BRRip XviD v Gladyatör (Gladiator) - 2000 - TR - BRRip XviD | tt0172495

Filmbol TV kullanıma açıldı. Bu adresten giriş yapabilirsin: Giriş





Gladyatör (Gladiator) - 2000 - TR - BRRip XviD | tt0172495
BroserBros
Gladyatör (Gladiator) - 2000 - TR - BRRip XviD | tt0172495
4
742
  • Derecelendirme: 0/5 - 0 oy
  • 1
  • 2
  • 3
  • 4
  • 5
Konuyu Okuyanlar:1 Ziyaretçi
Şuan Online!
Filmin Yayınlanma Tarihi: 2000 
WWW
Rapor Et!
Şuan Online!
BroserBros Kurucu Admin
*******
Admin



 Gladyatör



Maximus işini layikı ile yapan bir generaldir. Onun işlerini bu şekilde iyi yapması tabii ki İmparatorluk tarafından ödüllendirilir ve gitgide yükselmektedir. Fakat tahtın varisi Commodus bu yükselişi hoşnut karşılamaz. Ayrıca babasının da Maximus'ı desteklemesi Commodus'da kıskançlık krizleri yaratır ve emri ile Maximus'un ailesinin tamamı öldürülür ve kendisi ise arenaya gönderir. Herşeyini kaybetmiş olan Maximus'un tek hedefi, intikam almaktır.

Gladyatör (2000) (Gladiator) | tt0172495 Filmi Imdb'den 1,400,000 kişi tarafından oylandı ve 8,5 puan aldı. Bu film için editör puanı %97 olarak belirlendi. İyi Seyirler!

Teknik Detaylar

Kod :
General
Complete name                            : /home/BroserBros/Desktop/3/Gladyator.2000.BRRip.XviD.TR.Filmbol.avi
Format                                   : AVI
Format/Info                              : Audio Video Interleave
File size                                : 702 MiB
Duration                                 : 2 h 28 min
Overall bit rate                         : 661 kb/s

Video
ID                                       : 0
Format                                   : MPEG-4 Visual
Format profile                           : Advanced [email protected]
Format settings                          : BVOP1
Format settings, BVOP                    : 1
Format settings, QPel                    : No
Format settings, GMC                     : No warppoints
Format settings, Matrix                  : Default (H.263)
Codec ID                                 : XVID
Codec ID/Hint                            : XviD
Duration                                 : 2 h 28 min
Bit rate                                 : 520 kb/s
Width                                    : 656 pixels
Height                                   : 368 pixels
Display aspect ratio                     : 16:9
Frame rate                               : 23.976 (23976/1000) FPS
Color space                              : YUV
Chroma subsampling                       : 4:2:0
Bit depth                                : 8 bits
Scan type                                : Progressive
Compression mode                         : Lossy
Bits/(Pixel*Frame)                       : 0.090
Stream size                              : 552 MiB (79%)
Writing library                          : XviD 1.2.1 (UTC 2008-12-04)

Audio
ID                                       : 1
Format                                   : MPEG Audio
Format version                           : Version 1
Format profile                           : Layer 3
Format settings                          : Joint stereo / MS Stereo
Codec ID                                 : 55
Codec ID/Hint                            : MP3
Duration                                 : 2 h 28 min
Bit rate mode                            : Constant
Bit rate                                 : 128 kb/s
Channel(s)                               : 2 channels
Sampling rate                            : 48.0 kHz
Frame rate                               : 41.667 FPS (1152 SPF)
Compression mode                         : Lossy
Stream size                              : 136 MiB (19%)
Alignment                                : Aligned on interleaves
Interleave, duration                     : 24  ms (0.58 video frame)
Writing library                          : LAME3.98r
Encoding settings                        : -m j -V 4 -q 2 -lowpass 17 -b 128

Film Detayları


 Gladyatör

 Gladyatör

 Gladyatör


Film Fragmanı


Film İndir


Rar Şifresi: filmbol.org



Uptobox ile indir

1Fichier ile indir

1Fichier'den İndiremiyor musun? Tıklayın!












Şuan Online!
Rapor Et!
Şuan Online!
BroserBros Kurucu Admin
*******
Admin
27.02.2021 Yönetici Notu:

Kırık linkler kontrol edildi, kaldırıldı ve yenilendi. Tüm linkler tamamen çalışır durumda.
Şuan Offine!
Rapor Et!
Şuan Offine!
Furkan61 Cezalı Üye
  • Konular0
  • Mesajlar288
Emeğinize Sağlık BroserBros Big Grin
Şuan Offine!
Rapor Et!
Şuan Offine!
ed4wert4 Üye
*
Üye
  • Konular0
  • Mesajlar42
  • Rep puanı 0
Teşekkürler.
Şuan Offine!
Rapor Et!
Şuan Offine!
c3nGO Üye
*
Üye
  • Konular0
  • Mesajlar15
  • Rep puanı 0
Teşekkürler.


Hızlı Menü: