⤤ Premium'a Yükselt
Filmbol Forum Film İndir 1080P v Şeytanın Arabası 2 (The Car: Road to Revenge) - 2019 - TR+ORG - 1080P | tt9382596

Filmbol TV kullanıma açıldı. Bu adresten giriş yapabilirsin: Giriş





Şeytanın Arabası 2 (The Car: Road to Revenge) - 2019 - TR+ORG - 1080P | tt9382596
BroserBros
Şeytanın Arabası 2 (The Car: Road to Revenge) - 2019 - TR+ORG - 1080P | tt9382596
4
612
  • Derecelendirme: 0/5 - 0 oy
  • 1
  • 2
  • 3
  • 4
  • 5
Konuyu Okuyanlar:1 Ziyaretçi
Şuan Online!
Filmin Yayınlanma Tarihi: 2019 
WWW
Rapor Et!
Şuan Online!
BroserBros Kurucu Admin
*******
Admin



 Şeytanın Arabası 2



Şeytanın Arabası 2 ilk filmi 1977 yılında yayınlanan The Car filminin devam filmi olarak karşımıza çıkıyor. Bu film de Caddock bir savcıdır ve cyberpunklarında bulunduğu şehirde düzen sağlamaktadır. Ancak suçlularla olan mücadelede yüksek oranda kaybetmiş ve bunun üzerine şehirde herhangi bir suç işleyenin cezasının idamdan daha kötü bir şekilde, acı çektirilerek öldürüleceğine karar verir. Bunun üzerinde suç oranı tamamen azalmaz ancak %50 oranında düşer. Ancak bu yeterli değildir…

Şeytanın Arabası 2 (2019) (The Car: Road to Revenge) | tt9382596 Filmi Imdb'den 1,000 kişi tarafından oylandı ve 4,0 puan aldı. Bu film için editör puanı %42 olarak belirlendi. İyi Seyirler!

Teknik Detaylar

Kod :
General
Unique ID                                : 170444763750132420584347390458363500931 (0x803A77A9F42A9F43F5E00C5A93BDD983)
Complete name                            : /home/BroserBros/Desktop/7/Şeytanın.Arabası.2.2019.1080p.WEBRip.x264.TR.ENG.Filmbol.mkv
Format                                   : Matroska
Format version                           : Version 4
File size                                : 1.60 GiB
Duration                                 : 1 h 28 min
Overall bit rate                         : 2 572 kb/s
Movie name                               : Şeytanın Arabası 2 - The Car: Road to Revenge - 2019 | Filmbol.org
Encoded date                             : UTC 2021-03-06 14:06:08
Writing application                      : mkvmerge v53.0.0 ('Fool's Gold') 64-bit
Writing library                          : libebml v1.4.1 + libmatroska v1.6.2

Video
ID                                       : 1
Format                                   : AVC
Format/Info                              : Advanced Video Codec
Format profile                           : [email protected]
Format settings                          : CABAC / 4 Ref Frames
Format settings, CABAC                   : Yes
Format settings, Reference frames        : 4 frames
Codec ID                                 : V_MPEG4/ISO/AVC
Duration                                 : 1 h 28 min
Bit rate                                 : 2 250 kb/s
Width                                    : 1 904 pixels
Height                                   : 1 072 pixels
Display aspect ratio                     : 16:9
Frame rate mode                          : Constant
Frame rate                               : 23.976 (24000/1001) FPS
Color space                              : YUV
Chroma subsampling                       : 4:2:0
Bit depth                                : 8 bits
Scan type                                : Progressive
Bits/(Pixel*Frame)                       : 0.046
Stream size                              : 1.40 GiB (87%)
Title                                    : 1080P - Filmbol.org
Writing library                          : x264 core 159
Encoding settings                        : cabac=1 / ref=4 / deblock=1:-1:-1 / analyse=0x3:0x133 / me=umh / subme=9 / psy=1 / psy_rd=1.00:0.15 / mixed_ref=1 / me_range=24 / chroma_me=1 / trellis=2 / 8x8dct=1 / cqm=0 / deadzone=21,11 / fast_pskip=0 / chroma_qp_offset=-3 / threads=12 / lookahead_threads=1 / sliced_threads=0 / nr=0 / decimate=1 / interlaced=0 / bluray_compat=0 / constrained_intra=0 / bframes=3 / b_pyramid=2 / b_adapt=2 / b_bias=0 / direct=3 / weightb=1 / open_gop=0 / weightp=2 / keyint=250 / keyint_min=23 / scenecut=40 / intra_refresh=0 / rc_lookahead=60 / rc=2pass / mbtree=1 / bitrate=2250 / ratetol=1.0 / qcomp=0.60 / qpmin=0 / qpmax=69 / qpstep=4 / cplxblur=20.0 / qblur=0.5 / vbv_maxrate=31250 / vbv_bufsize=31250 / nal_hrd=none / filler=0 / ip_ratio=1.40 / aq=1:1.00
Default                                  : Yes
Forced                                   : No

Audio #1
ID                                       : 2
Format                                   : AC-3
Format/Info                              : Audio Coding 3
Commercial name                          : Dolby Digital
Codec ID                                 : A_AC3
Duration                                 : 1 h 28 min
Bit rate mode                            : Constant
Bit rate                                 : 192 kb/s
Channel(s)                               : 2 channels
Channel layout                           : L R
Sampling rate                            : 48.0 kHz
Frame rate                               : 31.250 FPS (1536 SPF)
Compression mode                         : Lossy
Stream size                              : 122 MiB (7%)
Title                                    : Türkçe - Filmbol.org
Language                                 : Turkish
Service kind                             : Complete Main
Default                                  : Yes
Forced                                   : Yes

Audio #2
ID                                       : 3
Format                                   : AAC LC
Format/Info                              : Advanced Audio Codec Low Complexity
Codec ID                                 : A_AAC-2
Duration                                 : 1 h 28 min
Bit rate                                 : 128 kb/s
Channel(s)                               : 2 channels
Channel layout                           : L R
Sampling rate                            : 48.0 kHz
Frame rate                               : 46.875 FPS (1024 SPF)
Compression mode                         : Lossy
Stream size                              : 81.5 MiB (5%)
Title                                    : Orjinal Dil - Filmbol.org
Language                                 : Tonga
Default                                  : No
Forced                                   : No

Text
ID                                       : 4
Format                                   : UTF-8
Codec ID                                 : S_TEXT/UTF8
Codec ID/Info                            : UTF-8 Plain Text
Duration                                 : 1 h 23 min
Bit rate                                 : 45 b/s
Count of elements                        : 933
Stream size                              : 28.1 KiB (0%)
Title                                    : Türkçe Altyazı - Filmbol.org
Language                                 : Turkish
Default                                  : No
Forced                                   : No

Film Detayları


 Şeytanın Arabası 2

 Şeytanın Arabası 2

 Şeytanın Arabası 2


Film Fragmanı


Film İndir


Rar Şifresi: filmbol.org


Uptobox ile indir

1Fichier ile indir

1Fichier'den İndiremiyor musun? Tıklayın!












Şuan Offine!
Rapor Et!
Şuan Offine!
aspirin4646 Uzman Üye
**
Uzman Üye
  • Konular0
  • Mesajlar10
  • Rep puanı 0
süper
Şuan Online!
Rapor Et!
Şuan Online!
BroserBros Kurucu Admin
*******
Admin
09.03.2021 Yönetici Notu:

Kırık linkler kontrol edildi, kaldırıldı ve yenilendi. Tüm linkler tamamen çalışır durumda.
Şuan Offine!
Rapor Et!
Şuan Offine!
sectechno Premium Üye
****
  • Konular19
  • Mesajlar204
  • Rep puanı 47
Teşekkürler arkadaşım.İyi çalışmalar.
Şuan Offine!
Rapor Et!
Şuan Offine!
askbocegi31 Üye
*
Üye
  • Konular0
  • Mesajlar100
  • Rep puanı 0
Teşekkürler.


Hızlı Menü: