⤤ Premium'a Yükselt

Merhaba, Ziyaretçi. Mega linklerinin bir kısmı deaktif halde ve yenileme çalışmalarına başladık. Bu süre içinde ikinci duyuruya kadar mega linklerini raporlamayın!! x

Filmbol Forum Film İndir BRRip XviD v Şeytanın Arabası 2 (The Car: Road to Revenge) - 2019 - TR - BRRip XviD | tt9382596

Filmbol TV kullanıma açıldı. Bu adresten giriş yapabilirsin: Giriş





Şeytanın Arabası 2 (The Car: Road to Revenge) - 2019 - TR - BRRip XviD | tt9382596
BroserBros
Şeytanın Arabası 2 (The Car: Road to Revenge) - 2019 - TR - BRRip XviD | tt9382596
4
568
  • Derecelendirme: 0/5 - 0 oy
  • 1
  • 2
  • 3
  • 4
  • 5
Konuyu Okuyanlar:2 Ziyaretçi
Şuan Online!
Filmin Yayınlanma Tarihi: 2019 
WWW
Rapor Et!
Şuan Online!
BroserBros Kurucu Admin
*******
Admin



 Şeytanın Arabası 2



Şeytanın Arabası 2 ilk filmi 1977 yılında yayınlanan The Car filminin devam filmi olarak karşımıza çıkıyor. Bu film de Caddock bir savcıdır ve cyberpunklarında bulunduğu şehirde düzen sağlamaktadır. Ancak suçlularla olan mücadelede yüksek oranda kaybetmiş ve bunun üzerine şehirde herhangi bir suç işleyenin cezasının idamdan daha kötü bir şekilde, acı çektirilerek öldürüleceğine karar verir. Bunun üzerinde suç oranı tamamen azalmaz ancak %50 oranında düşer. Ancak bu yeterli değildir…

Şeytanın Arabası 2 (2019) (The Car: Road to Revenge) | tt9382596 Filmi Imdb'den 1,000 kişi tarafından oylandı ve 4,0 puan aldı. Bu film için editör puanı %42 olarak belirlendi. İyi Seyirler!

Teknik Detaylar

Kod :
General
Complete name                            : /home/BroserBros/Desktop/7/Şeytanın.Arabası.2.2019.BRRip.XviD.TR.Filmbol.avi
Format                                   : AVI
Format/Info                              : Audio Video Interleave
File size                                : 919 MiB
Duration                                 : 1 h 28 min
Overall bit rate                         : 1 446 kb/s

Video
ID                                       : 0
Format                                   : MPEG-4 Visual
Format profile                           : Advanced [email protected]
Format settings                          : BVOP1
Format settings, BVOP                    : 1
Format settings, QPel                    : No
Format settings, GMC                     : No warppoints
Format settings, Matrix                  : Default (MPEG)
Codec ID                                 : XVID
Codec ID/Hint                            : XviD
Duration                                 : 1 h 28 min
Bit rate                                 : 1 305 kb/s
Width                                    : 720 pixels
Height                                   : 404 pixels
Display aspect ratio                     : 16:9
Frame rate                               : 23.976 (24000/1001) FPS
Original frame rate                      : 23.976 (23976/1000) FPS
Color space                              : YUV
Chroma subsampling                       : 4:2:0
Bit depth                                : 8 bits
Scan type                                : Progressive
Compression mode                         : Lossy
Bits/(Pixel*Frame)                       : 0.187
Stream size                              : 829 MiB (90%)
Writing library                          : XviD 64

Audio
ID                                       : 1
Format                                   : MPEG Audio
Format version                           : Version 1
Format profile                           : Layer 3
Format settings                          : Joint stereo
Codec ID                                 : 55
Codec ID/Hint                            : MP3
Duration                                 : 1 h 28 min
Bit rate mode                            : Constant
Bit rate                                 : 128 kb/s
Channel(s)                               : 2 channels
Sampling rate                            : 48.0 kHz
Frame rate                               : 41.667 FPS (1152 SPF)
Compression mode                         : Lossy
Stream size                              : 81.3 MiB (9%)
Alignment                                : Aligned on interleaves
Interleave, duration                     : 24  ms (0.58 video frame)

Film Detayları


 Şeytanın Arabası 2

 Şeytanın Arabası 2

 Şeytanın Arabası 2


Film Fragmanı


Film İndir


Rar Şifresi: filmbol.org



Uptobox ile indir

1Fichier ile indir

1Fichier'den İndiremiyor musun? Tıklayın!












Şuan Online!
Rapor Et!
Şuan Online!
BroserBros Kurucu Admin
*******
Admin
09.03.2021 Yönetici Notu:

Kırık linkler kontrol edildi, kaldırıldı ve yenilendi. Tüm linkler tamamen çalışır durumda.
Şuan Offine!
Rapor Et!
Şuan Offine!
Furkan61 Cezalı Üye
  • Konular0
  • Mesajlar288
güzel
Şuan Online!
Rapor Et!
Şuan Online!
BroserBros Kurucu Admin
*******
Admin
(09-03-2021, Saat: 22:24)Furkan61 Adlı Kullanıcıdan Alıntı: güzel
çok hızlısın @Furkan61 Big Grin
Şuan Offine!
Rapor Et!
Şuan Offine!
Furkan61 Cezalı Üye
  • Konular0
  • Mesajlar288
(09-03-2021, Saat: 22:27)BroserBros Adlı Kullanıcıdan Alıntı:
(09-03-2021, Saat: 22:24)Furkan61 Adlı Kullanıcıdan Alıntı: güzel
çok hızlısın @Furkan61 Big Grin
Teşekkürler .))


Hızlı Menü: