⤤ Premium'a Yükselt

Merhaba, Ziyaretçi. Mega linklerinin bir kısmı deaktif halde ve yenileme çalışmalarına başladık. Bu süre içinde ikinci duyuruya kadar mega linklerini raporlamayın!! x

Filmbol Forum Film İndir 720P v Kuzuların Sessizliği (The Silence of the Lambs) - 1991 - TR+ORG - 720P | tt0102926

Filmbol TV kullanıma açıldı. Bu adresten giriş yapabilirsin: Giriş





Kuzuların Sessizliği (The Silence of the Lambs) - 1991 - TR+ORG - 720P | tt0102926
BroserBros
Kuzuların Sessizliği (The Silence of the Lambs) - 1991 - TR+ORG - 720P | tt0102926
5
986
  • Derecelendirme: 0/5 - 0 oy
  • 1
  • 2
  • 3
  • 4
  • 5
Konuyu Okuyanlar:2 Ziyaretçi
Şuan Online!
Filmin Yayınlanma Tarihi: 1991 
WWW
Rapor Et!
Şuan Online!
BroserBros Kurucu Admin
*******
Admin



 Kuzuların Sessizliği



Bir insanın ne kadar katil olabileceğini düşünün, ancak bunu akıl sağlıgı’da yerinde olmayan birine göre düşünmek zorundasınız. Ne kadar ile gidebilir ki? diye sorabilirsiniz. Bu filmde cevabı alacağınızdan emin olabilirsiniz. Bu katil yine bir şeyler planlar ve bir kadını kaçırarak pislik amellerini uygulamaya çalışacaktır. Bunu bir şekilde farkeden Clarica Starling, kadını bulmak ve bu katilin elinden kurtarmaya çalışacaktır fakat bu sandığı kadar kolay değildir.. Kuzuların Sessizliği, bir çok dalda Oscar’a aday olmuştur ve 4 farklı kategoride Oscar kazanmıştır…

Kuzuların Sessizliği (1991) (The Silence of the Lambs) | tt0102926 Filmi Imdb'den 1,300,000 kişi tarafından oylandı ve 8,6 puan aldı. Bu film için editör puanı %92 olarak belirlendi. İyi Seyirler!

Teknik Detaylar

Kod :
General
Unique ID                                : 203076309614640431200320137072457459997 (0x98C71316E79E934B4F20E00368C2A91D)
Complete name                            : /home/BroserBros/Desktop/7/Kuzuların.Sessizliği.1991.720p.BluRay.x264.TR.ENG.Filmbol.mkv
Format                                   : Matroska
Format version                           : Version 4
File size                                : 941 MiB
Duration                                 : 1 h 58 min
Overall bit rate                         : 1 110 kb/s
Movie name                               : Kuzuların Sessizliği - The Silence of the Lambs - 1991 | Filmbol.org
Encoded date                             : UTC 2021-05-07 08:37:58
Writing application                      : mkvmerge v53.0.0 ('Fool's Gold') 64-bit
Writing library                          : libebml v1.4.1 + libmatroska v1.6.2

Video
ID                                       : 1
Format                                   : AVC
Format/Info                              : Advanced Video Codec
Format profile                           : [email protected]
Format settings                          : CABAC / 9 Ref Frames
Format settings, CABAC                   : Yes
Format settings, Reference frames        : 9 frames
Codec ID                                 : V_MPEG4/ISO/AVC
Duration                                 : 1 h 58 min
Bit rate                                 : 787 kb/s
Width                                    : 1 280 pixels
Height                                   : 688 pixels
Display aspect ratio                     : 1.85:1
Frame rate mode                          : Constant
Frame rate                               : 23.976 (24000/1001) FPS
Color space                              : YUV
Chroma subsampling                       : 4:2:0
Bit depth                                : 8 bits
Scan type                                : Progressive
Bits/(Pixel*Frame)                       : 0.037
Stream size                              : 667 MiB (71%)
Title                                    : 720P - Filmbol.org
Writing library                          : x264 core 125 r2200 999b753
Encoding settings                        : cabac=1 / ref=9 / deblock=1:0:0 / analyse=0x3:0x113 / me=hex / subme=7 / psy=1 / psy_rd=1.00:0.00 / mixed_ref=1 / me_range=16 / chroma_me=1 / trellis=1 / 8x8dct=1 / cqm=0 / deadzone=21,11 / fast_pskip=1 / chroma_qp_offset=-2 / threads=6 / lookahead_threads=1 / sliced_threads=0 / nr=0 / decimate=1 / interlaced=0 / bluray_compat=0 / constrained_intra=0 / bframes=8 / b_pyramid=2 / b_adapt=1 / b_bias=0 / direct=1 / weightb=1 / open_gop=0 / weightp=2 / keyint=240 / keyint_min=23 / scenecut=40 / intra_refresh=0 / rc_lookahead=40 / rc=2pass / mbtree=1 / bitrate=787 / ratetol=1.0 / qcomp=0.60 / qpmin=10 / qpmax=51 / qpstep=4 / cplxblur=20.0 / qblur=0.5 / ip_ratio=1.40 / aq=1:1.00
Default                                  : Yes
Forced                                   : No

Audio #1
ID                                       : 2
Format                                   : AC-3
Format/Info                              : Audio Coding 3
Commercial name                          : Dolby Digital
Codec ID                                 : A_AC3
Duration                                 : 1 h 58 min
Bit rate mode                            : Constant
Bit rate                                 : 224 kb/s
Channel(s)                               : 2 channels
Channel layout                           : L R
Sampling rate                            : 48.0 kHz
Frame rate                               : 31.250 FPS (1536 SPF)
Compression mode                         : Lossy
Delay relative to video                  : -125 ms
Stream size                              : 190 MiB (20%)
Title                                    : Türkçe - Filmbol.org
Language                                 : Turkish
Service kind                             : Complete Main
Default                                  : Yes
Forced                                   : Yes

Audio #2
ID                                       : 3
Format                                   : AAC LC
Format/Info                              : Advanced Audio Codec Low Complexity
Codec ID                                 : A_AAC-2
Duration                                 : 1 h 58 min
Bit rate                                 : 96.0 kb/s
Channel(s)                               : 2 channels
Channel layout                           : L R
Sampling rate                            : 48.0 kHz
Frame rate                               : 46.875 FPS (1024 SPF)
Compression mode                         : Lossy
Delay relative to video                  : -125 ms
Stream size                              : 81.3 MiB (9%)
Title                                    : Orjinal Dil - Filmbol.org
Language                                 : English
Default                                  : No
Forced                                   : No

Text
ID                                       : 4
Format                                   : UTF-8
Codec ID                                 : S_TEXT/UTF8
Codec ID/Info                            : UTF-8 Plain Text
Duration                                 : 1 h 50 min
Bit rate                                 : 52 b/s
Count of elements                        : 1054
Stream size                              : 42.7 KiB (0%)
Title                                    : Türkçe - Filmbol.org
Language                                 : Turkish
Default                                  : No
Forced                                   : No

Film Detayları


 Kuzuların Sessizliği

 Kuzuların Sessizliği

 Kuzuların Sessizliği


Film Fragmanı


Film İndir


Rar Şifresi: filmbol.org


Uptobox ile indir

1Fichier ile indir

1Fichier'den İndiremiyor musun? Tıklayın!












Şuan Offine!
Rapor Et!
Şuan Offine!
agresif Süper Üye
***
Super Üye
  • Konular0
  • Mesajlar37
  • Rep puanı 0
tşklr
Şuan Offine!
Rapor Et!
Şuan Offine!
BürkütFenrir Üye
*
Üye
  • Konular0
  • Mesajlar2
  • Rep puanı 0
Film oldukça kaliteli Lecter'ın diğer filmlerinde tavsiye ederim
Şuan Online!
Rapor Et!
Şuan Online!
BroserBros Kurucu Admin
*******
Admin
07.05.2021 Yönetici Notu:

Kırık linkler kontrol edildi, kaldırıldı ve yenilendi. Tüm linkler tamamen çalışır durumda.
Şuan Offine!
Rapor Et!
Şuan Offine!
shalashaska Üye
*
Üye
  • Konular0
  • Mesajlar1
  • Rep puanı 0
Teşekkürler.
Şuan Offine!
Rapor Et!
Şuan Offine!
jurojin.ae Üye
*
Üye
  • Konular0
  • Mesajlar8
  • Rep puanı 0
Teşekkürler.


Hızlı Menü: