⤤ Premium'a Yükselt
Filmbol Forum Film İndir BRRip XviD v Kuzuların Sessizliği (The Silence of the Lambs) - 1991 - TR - BRRip XviD | tt0102926

Filmbol TV kullanıma açıldı. Bu adresten giriş yapabilirsin: Giriş





Kuzuların Sessizliği (The Silence of the Lambs) - 1991 - TR - BRRip XviD | tt0102926
BroserBros
Kuzuların Sessizliği (The Silence of the Lambs) - 1991 - TR - BRRip XviD | tt0102926
1
535
  • Derecelendirme: 0/5 - 0 oy
  • 1
  • 2
  • 3
  • 4
  • 5
Konuyu Okuyanlar:1 Ziyaretçi
Şuan Online!
Filmin Yayınlanma Tarihi: 1991 
WWW
Rapor Et!
Şuan Online!
BroserBros Kurucu Admin
*******
Admin



 Kuzuların Sessizliği



Bir insanın ne kadar katil olabileceğini düşünün, ancak bunu akıl sağlıgı’da yerinde olmayan birine göre düşünmek zorundasınız. Ne kadar ile gidebilir ki? diye sorabilirsiniz. Bu filmde cevabı alacağınızdan emin olabilirsiniz. Bu katil yine bir şeyler planlar ve bir kadını kaçırarak pislik amellerini uygulamaya çalışacaktır. Bunu bir şekilde farkeden Clarica Starling, kadını bulmak ve bu katilin elinden kurtarmaya çalışacaktır fakat bu sandığı kadar kolay değildir.. Kuzuların Sessizliği, bir çok dalda Oscar’a aday olmuştur ve 4 farklı kategoride Oscar kazanmıştır…

Kuzuların Sessizliği (1991) (The Silence of the Lambs) | tt0102926 Filmi Imdb'den 1,300,000 kişi tarafından oylandı ve 8,6 puan aldı. Bu film için editör puanı %92 olarak belirlendi. İyi Seyirler!

Teknik Detaylar

Kod :
General
Unique ID                                : 201141433300849581835204622087050833152 (0x97526E526B26B7660F539D7C89292D00)
Complete name                            : /home/BroserBros/Desktop/7/Kuzuların.Sessizliği.1991.BRRip.XviD.TR.Filmbol.avi
Format                                   : Matroska
Format version                           : Version 4
File size                                : 1.92 GiB
Duration                                 : 1 h 58 min
Overall bit rate                         : 2 319 kb/s
Movie name                               : Kuzuların Sessizliği - The Silence of the Lambs - 1991 | Filmbol.org
Encoded date                             : UTC 2021-05-07 10:23:17
Writing application                      : mkvmerge v53.0.0 ('Fool's Gold') 64-bit
Writing library                          : libebml v1.4.1 + libmatroska v1.6.2
FileExtension_Invalid                    : mkv mk3d mka mks

Video
ID                                       : 1
Format                                   : V_MS/VFW/FOURCC / xvid
Codec ID                                 : V_MS/VFW/FOURCC / xvid
Duration                                 : 1 h 58 min
Bit rate                                 : 2 093 kb/s
Width                                    : 720 pixels
Height                                   : 400 pixels
Display aspect ratio                     : 16:9
Frame rate mode                          : Constant
Frame rate                               : 23.976 (24000/1001) FPS
Bits/(Pixel*Frame)                       : 0.303
Stream size                              : 1.73 GiB (90%)
Title                                    : Kuzuların Sessizliği - The Silence of the Lambs - 1991 | Filmbol.org
Default                                  : Yes
Forced                                   : No

Audio
ID                                       : 2
Format                                   : AC-3
Format/Info                              : Audio Coding 3
Commercial name                          : Dolby Digital
Codec ID                                 : A_AC3
Duration                                 : 1 h 58 min
Bit rate mode                            : Constant
Bit rate                                 : 224 kb/s
Channel(s)                               : 2 channels
Channel layout                           : L R
Sampling rate                            : 48.0 kHz
Frame rate                               : 31.250 FPS (1536 SPF)
Compression mode                         : Lossy
Stream size                              : 190 MiB (10%)
Title                                    : Kuzuların Sessizliği - The Silence of the Lambs - 1991 | Filmbol.org
Service kind                             : Complete Main
Default                                  : Yes
Forced                                   : No

Film Detayları


 Kuzuların Sessizliği

 Kuzuların Sessizliği

 Kuzuların Sessizliği


Film Fragmanı


Film İndir


Rar Şifresi: filmbol.org



Uptobox ile indir

1Fichier ile indir

1Fichier'den İndiremiyor musun? Tıklayın!












Şuan Online!
Rapor Et!
Şuan Online!
BroserBros Kurucu Admin
*******
Admin
07.05.2021 Yönetici Notu:

Kırık linkler kontrol edildi, kaldırıldı ve yenilendi. Tüm linkler tamamen çalışır durumda.


Hızlı Menü: