⤤ Premium'a Yükselt
Filmbol Forum Film İndir BRRip XviD v Dünya: Muhteşem Bir Gün (Earth: One Amazing Day) - 2017 - TR - BRRip XviD | tt6238896

Filmbol TV kullanıma açıldı. Bu adresten giriş yapabilirsin: Giriş





Dünya: Muhteşem Bir Gün (Earth: One Amazing Day) - 2017 - TR - BRRip XviD | tt6238896
BroserBros
Dünya: Muhteşem Bir Gün (Earth: One Amazing Day) - 2017 - TR - BRRip XviD | tt6238896
2
500
  • Derecelendirme: 0/5 - 0 oy
  • 1
  • 2
  • 3
  • 4
  • 5
Konuyu Okuyanlar:3 Ziyaretçi
Şuan Online!
Filmin Yayınlanma Tarihi: 2017 
WWW
Rapor Et!
Şuan Online!
BroserBros Kurucu Admin
*******
Admin



 Dünya: Muhteşem Bir Gün



Gezegenimizde ki canlıları daha yakından tanımak ister misiniz? Cevabınız evet ise Dünya: İnanılmaz Bir Gün belgeseli tam da size göre. Bu olaganüstü belgeselin o kadar güzel kayıtları var ki, bunları bir çok yerde görmüş olma ihtimaliniz yüksek. BBC’nin yapımcılığını üstlendiği belgeselde gezegenin en ucra yerlerinde bulunan yaşamları mercek altına alıyor. Ayrıca belgesel yine BBC’nin Planet Earth belgeselinin devamı niteliğinde…

Dünya: Muhteşem Bir Gün (2017) (Earth: One Amazing Day) | tt6238896 Filmi Imdb'den 3,000 kişi tarafından oylandı ve 7,8 puan aldı. Bu film için editör puanı %88 olarak belirlendi. İyi Seyirler!

Teknik Detaylar

Kod :
General
Unique ID                                : 108457865310333964481728357851632972248 (0x5198399CE9ABD1DA616BA93ADA5731D8)
Complete name                            : /home/BroserBros/Desktop/7/Dünya.Muhteşem.Bir.Gün.2017.BRRip.XviD.TR.Filmbol.avi
Format                                   : Matroska
Format version                           : Version 4
File size                                : 1.36 GiB
Duration                                 : 1 h 33 min
Overall bit rate                         : 2 080 kb/s
Movie name                               : Dünya: Muhteşem Bir Gün - Earth: One Amazing Day - 2017 | Filmbol.org
Encoded date                             : UTC 2021-05-23 10:44:07
Writing application                      : mkvmerge v53.0.0 ('Fool's Gold') 64-bit
Writing library                          : libebml v1.4.1 + libmatroska v1.6.2
FileExtension_Invalid                    : mkv mk3d mka mks

Video
ID                                       : 1
Format                                   : MPEG-4 Visual
Format profile                           : Advanced [email protected]
Format settings                          : BVOP2 / QPel
Format settings, BVOP                    : 2
Format settings, QPel                    : Yes
Format settings, GMC                     : No warppoints
Format settings, Matrix                  : Default (H.263)
Codec ID                                 : V_MS/VFW/FOURCC / XVID
Codec ID/Hint                            : XviD
Duration                                 : 1 h 33 min
Bit rate                                 : 1 950 kb/s
Width                                    : 720 pixels
Height                                   : 404 pixels
Display aspect ratio                     : 16:9
Frame rate mode                          : Constant
Frame rate                               : 23.976 (23976/1000) FPS
Color space                              : YUV
Chroma subsampling                       : 4:2:0
Bit depth                                : 8 bits
Scan type                                : Progressive
Compression mode                         : Lossy
Bits/(Pixel*Frame)                       : 0.280
Stream size                              : 1.28 GiB (94%)
Title                                    : Dünya: Muhteşem Bir Gün - Earth: One Amazing Day - 2017 | Filmbol.org
Writing library                          : XviD 67
Default                                  : Yes
Forced                                   : No

Audio
ID                                       : 2
Format                                   : MPEG Audio
Format version                           : Version 1
Format profile                           : Layer 3
Format settings                          : Joint stereo / MS Stereo
Codec ID                                 : A_MPEG/L3
Codec ID/Hint                            : MP3
Duration                                 : 1 h 33 min
Bit rate mode                            : Constant
Bit rate                                 : 128 kb/s
Channel(s)                               : 2 channels
Sampling rate                            : 48.0 kHz
Frame rate                               : 41.667 FPS (1152 SPF)
Compression mode                         : Lossy
Delay relative to video                  : 250 ms
Stream size                              : 85.9 MiB (6%)
Title                                    : Dünya: Muhteşem Bir Gün - Earth: One Amazing Day - 2017 | Filmbol.org
Writing library                          : LAME3.99.5
Default                                  : Yes
Forced                                   : No

Film Detayları


 Dünya: Muhteşem Bir Gün

 Dünya: Muhteşem Bir Gün

 Dünya: Muhteşem Bir Gün


Film Fragmanı


Film İndir


Rar Şifresi: filmbol.org



Uptobox ile indir

1Fichier ile indir

1Fichier'den İndiremiyor musun? Tıklayın!












Şuan Offine!
Rapor Et!
Şuan Offine!
ercan Uzman Üye
**
Uzman Üye
  • Konular0
  • Mesajlar24
  • Rep puanı 0
teşekkürler..
Şuan Online!
Rapor Et!
Şuan Online!
BroserBros Kurucu Admin
*******
Admin
24.05.2021 Yönetici Notu:

Kırık linkler kontrol edildi, kaldırıldı ve yenilendi. Tüm linkler tamamen çalışır durumda.


Hızlı Menü: