⤤ Premium'a Yükselt
Filmbol Forum Film İndir FHD - FULL HD v Dünya: Muhteşem Bir Gün (Earth: One Amazing Day) - 2017 - TR+ORG - FHD - x264 | tt6238896

Filmbol TV kullanıma açıldı. Bu adresten giriş yapabilirsin: Giriş





Dünya: Muhteşem Bir Gün (Earth: One Amazing Day) - 2017 - TR+ORG - FHD - x264 | tt6238896
BroserBros
Dünya: Muhteşem Bir Gün (Earth: One Amazing Day) - 2017 - TR+ORG - FHD - x264 | tt6238896
7
790
  • Derecelendirme: 0/5 - 0 oy
  • 1
  • 2
  • 3
  • 4
  • 5
Konuyu Okuyanlar:2 Ziyaretçi
Şuan Online!
Filmin Yayınlanma Tarihi: 2017 
WWW
Rapor Et!
Şuan Online!
BroserBros Kurucu Admin
*******
Admin



 Dünya: Muhteşem Bir Gün



Gezegenimizde ki canlıları daha yakından tanımak ister misiniz? Cevabınız evet ise Dünya: İnanılmaz Bir Gün belgeseli tam da size göre. Bu olaganüstü belgeselin o kadar güzel kayıtları var ki, bunları bir çok yerde görmüş olma ihtimaliniz yüksek. BBC’nin yapımcılığını üstlendiği belgeselde gezegenin en ucra yerlerinde bulunan yaşamları mercek altına alıyor. Ayrıca belgesel yine BBC’nin Planet Earth belgeselinin devamı niteliğinde…

Dünya: Muhteşem Bir Gün (2017) (Earth: One Amazing Day) | tt6238896 Filmi Imdb'den 3,000 kişi tarafından oylandı ve 7,8 puan aldı. Bu film için editör puanı %88 olarak belirlendi. İyi Seyirler!

Teknik Detaylar

Kod :
General
Unique ID                                : 129529692040034761250087027890897162917 (0x617282E1D9E8FC9A31F3D10EBDC212A5)
Complete name                            : /home/BroserBros/Desktop/7/Dünya.Muhteşem.Bir.Gün.2017.FHD.BluRay.x264.TR.ENG.Filmbol.mkv
Format                                   : Matroska
Format version                           : Version 4
File size                                : 6.41 GiB
Duration                                 : 1 h 33 min
Overall bit rate                         : 9 791 kb/s
Movie name                               : Dünya: Muhteşem Bir Gün - Earth: One Amazing Day - 2017 | Filmbol.org
Encoded date                             : UTC 2021-05-23 10:38:16
Writing application                      : mkvmerge v53.0.0 ('Fool's Gold') 64-bit
Writing library                          : libebml v1.4.1 + libmatroska v1.6.2

Video
ID                                       : 1
Format                                   : AVC
Format/Info                              : Advanced Video Codec
Format profile                           : [email protected]
Format settings                          : CABAC / 9 Ref Frames
Format settings, CABAC                   : Yes
Format settings, Reference frames        : 9 frames
Codec ID                                 : V_MPEG4/ISO/AVC
Duration                                 : 1 h 33 min
Bit rate                                 : 8 956 kb/s
Width                                    : 1 280 pixels
Height                                   : 720 pixels
Display aspect ratio                     : 16:9
Frame rate mode                          : Constant
Frame rate                               : 23.976 (24000/1001) FPS
Color space                              : YUV
Chroma subsampling                       : 4:2:0
Bit depth                                : 8 bits
Scan type                                : Progressive
Bits/(Pixel*Frame)                       : 0.405
Stream size                              : 5.87 GiB (91%)
Title                                    : FHD - Filmbol.org
Writing library                          : x264 core 148 r2665kMod a01e339
Encoding settings                        : cabac=1 / ref=9 / deblock=1:-3:-3 / analyse=0x3:0x133 / me=umh / subme=11 / psy=1 / fade_compensate=0.00 / psy_rd=1.00:0.00 / mixed_ref=1 / me_range=48 / chroma_me=1 / trellis=2 / 8x8dct=1 / cqm=0 / deadzone=21,11 / fast_pskip=0 / chroma_qp_offset=-2 / threads=22 / lookahead_threads=5 / sliced_threads=0 / nr=0 / decimate=0 / interlaced=0 / bluray_compat=0 / constrained_intra=0 / fgo=0 / bframes=11 / b_pyramid=2 / b_adapt=2 / b_bias=0 / direct=3 / weightb=1 / open_gop=0 / weightp=2 / keyint=240 / keyint_min=24 / scenecut=40 / intra_refresh=0 / rc_lookahead=40 / rc=crf / mbtree=0 / crf=16.7000 / qcomp=0.70 / qpmin=0 / qpmax=69 / qpstep=4 / vbv_maxrate=40000 / vbv_bufsize=30000 / crf_max=0.0 / nal_hrd=none / filler=0 / ip_ratio=1.20 / pb_ratio=1.20 / aq=3:0.85
Language                                 : English
Default                                  : Yes
Forced                                   : No

Audio #1
ID                                       : 2
Format                                   : AC-3
Format/Info                              : Audio Coding 3
Commercial name                          : Dolby Digital
Codec ID                                 : A_AC3
Duration                                 : 1 h 33 min
Bit rate mode                            : Constant
Bit rate                                 : 192 kb/s
Channel(s)                               : 2 channels
Channel layout                           : L R
Sampling rate                            : 44.1 kHz
Frame rate                               : 28.711 FPS (1536 SPF)
Compression mode                         : Lossy
Stream size                              : 129 MiB (2%)
Title                                    : Türkçe - Filmbol.org
Language                                 : Turkish
Service kind                             : Complete Main
Default                                  : Yes
Forced                                   : No

Audio #2
ID                                       : 3
Format                                   : AC-3
Format/Info                              : Audio Coding 3
Commercial name                          : Dolby Digital
Codec ID                                 : A_AC3
Duration                                 : 1 h 33 min
Bit rate mode                            : Constant
Bit rate                                 : 640 kb/s
Channel(s)                               : 6 channels
Channel layout                           : L R C LFE Ls Rs
Sampling rate                            : 48.0 kHz
Frame rate                               : 31.250 FPS (1536 SPF)
Compression mode                         : Lossy
Stream size                              : 429 MiB (7%)
Title                                    : Orijinal Dil - Filmbol.org
Language                                 : English
Service kind                             : Complete Main
Default                                  : No
Forced                                   : No

Text
ID                                       : 4
Format                                   : UTF-8
Codec ID                                 : S_TEXT/UTF8
Codec ID/Info                            : UTF-8 Plain Text
Duration                                 : 1 h 28 min
Bit rate                                 : 35 b/s
Count of elements                        : 454
Stream size                              : 22.9 KiB (0%)
Title                                    : Türkçe - Filmbol.org
Language                                 : Turkish
Default                                  : No
Forced                                   : No

Film Detayları


 Dünya: Muhteşem Bir Gün

 Dünya: Muhteşem Bir Gün

 Dünya: Muhteşem Bir Gün


Film Fragmanı


Film İndir


Rar Şifresi: filmbol.org










Şuan Offine!
Rapor Et!
Şuan Offine!
cucuk Üye
*
Üye
  • Konular0
  • Mesajlar3
  • Rep puanı 0
eyvallah
Şuan Online!
Rapor Et!
Şuan Online!
BroserBros Kurucu Admin
*******
Admin
24.05.2021 Yönetici Notu:

Kırık linkler kontrol edildi, kaldırıldı ve yenilendi. Tüm linkler tamamen çalışır durumda.
Şuan Offine!
Rapor Et!
Şuan Offine!
ahmettepe Üye
*
Üye
  • Konular0
  • Mesajlar65
  • Rep puanı 1
teşekkürler
Şuan Offine!
Rapor Et!
Şuan Offine!
bozcamahmut Üye
*
Üye
  • Konular0
  • Mesajlar63
  • Rep puanı 0
(13-03-2020, Saat: 12:15)cucuk Adlı Kullanıcıdan Alıntı: eyvallah
Çok güzel bir belgesel.Teşekkürler
Şuan Offine!
Rapor Et!
Şuan Offine!
erkutorenk Üye
*
Üye
  • Konular0
  • Mesajlar5
  • Rep puanı 0
Elinize sağlık
Şuan Online!
Rapor Et!
Şuan Online!
volkan55 Üye
*
Üye
  • Konular0
  • Mesajlar89
  • Rep puanı 0
teşekkürler
Şuan Offine!
Rapor Et!
Şuan Offine!
ninjaco Üye
*
Üye
  • Konular0
  • Mesajlar13
  • Rep puanı 0
Teşekkürler.


Hızlı Menü: