⤤ Premium'a Yükselt
Filmbol Forum Film İndir 1080P v Siyah Kuğu (Black Swan) - 2010 - TR+ORG - 1080P | tt0947798

Filmbol TV kullanıma açıldı. Bu adresten giriş yapabilirsin: Giriş





Siyah Kuğu (Black Swan) - 2010 - TR+ORG - 1080P | tt0947798
BroserBros
Siyah Kuğu (Black Swan) - 2010 - TR+ORG - 1080P | tt0947798
7
796
  • Derecelendirme: 0/5 - 0 oy
  • 1
  • 2
  • 3
  • 4
  • 5
Konuyu Okuyanlar:1 Ziyaretçi
Şuan Online!
Filmin Yayınlanma Tarihi: 2010 
WWW
Rapor Et!
Şuan Online!
BroserBros Kurucu Admin
*******
Admin



 Siyah Kuğu



Nina bir balerindir. Hayatını annesi ile birlikte kalarak ve balerinlik yaparak geçirir. Nina işinde gayet iyidir fakat çalıştığı şirket Siyah ve Beyaz Kuğu oyunu için farklı arayışlara girer. Nina elinden gelen herşeyi yapar ve iyi bir performas sergilesede Ninanın siyah kuğu rolüne uygun olmadığını düşünülür. Büyük bir hayal kırıklığına uğrayan Nina, bu zor zamanında kendinin kötü taraflarını ortaya çıkarmaya başlayacaktır…

Siyah Kuğu (2010) (Black Swan) | tt0947798 Filmi Imdb'den 720,000 kişi tarafından oylandı ve 8,0 puan aldı. Bu film için editör puanı %91 olarak belirlendi. İyi Seyirler!

Teknik Detaylar

Kod :
General
Unique ID                                : 328505168296542653282425264605480333994 (0xF723CB46EA41994D16D70602317BB2AA)
Complete name                            : /home/BroserBros/Desktop/3/Siyah.Kuğu.1080p.BluRay.x264.TR.ENG.Filmbol.mkv
Format                                   : Matroska
Format version                           : Version 4
File size                                : 1.85 GiB
Duration                                 : 1 h 48 min
Overall bit rate                         : 2 450 kb/s
Movie name                               : Siyah Kuğu - Black Swan - 2010 | Filmbol.org
Encoded date                             : UTC 2021-05-27 06:46:17
Writing application                      : mkvmerge v53.0.0 ('Fool's Gold') 64-bit
Writing library                          : libebml v1.4.1 + libmatroska v1.6.2

Video
ID                                       : 1
Format                                   : AVC
Format/Info                              : Advanced Video Codec
Format profile                           : [email protected]
Format settings                          : CABAC / 4 Ref Frames
Format settings, CABAC                   : Yes
Format settings, Reference frames        : 4 frames
Codec ID                                 : V_MPEG4/ISO/AVC
Duration                                 : 1 h 48 min
Bit rate                                 : 2 211 kb/s
Width                                    : 1 920 pixels
Height                                   : 800 pixels
Display aspect ratio                     : 2.40:1
Frame rate mode                          : Constant
Frame rate                               : 23.976 (24000/1001) FPS
Color space                              : YUV
Chroma subsampling                       : 4:2:0
Bit depth                                : 8 bits
Scan type                                : Progressive
Bits/(Pixel*Frame)                       : 0.060
Stream size                              : 1.67 GiB (90%)
Title                                    : 1080P - Filmbol.org
Writing library                          : x264 core 130
Encoding settings                        : cabac=1 / ref=3 / deblock=1:0:0 / analyse=0x3:0x113 / me=hex / subme=7 / psy=1 / psy_rd=1.00:0.00 / mixed_ref=1 / me_range=16 / chroma_me=1 / trellis=1 / 8x8dct=1 / cqm=0 / deadzone=21,11 / fast_pskip=1 / chroma_qp_offset=-2 / threads=9 / lookahead_threads=1 / sliced_threads=0 / nr=0 / decimate=1 / interlaced=0 / bluray_compat=0 / constrained_intra=0 / bframes=3 / b_pyramid=2 / b_adapt=1 / b_bias=0 / direct=1 / weightb=1 / open_gop=0 / weightp=2 / keyint=250 / keyint_min=23 / scenecut=40 / intra_refresh=0 / rc_lookahead=40 / rc=2pass / mbtree=1 / bitrate=2211 / ratetol=1.0 / qcomp=0.60 / qpmin=0 / qpmax=69 / qpstep=4 / cplxblur=20.0 / qblur=0.5 / ip_ratio=1.40 / aq=1:1.00
Language                                 : English
Default                                  : Yes
Forced                                   : No

Audio #1
ID                                       : 2
Format                                   : AC-3
Format/Info                              : Audio Coding 3
Commercial name                          : Dolby Digital
Codec ID                                 : A_AC3
Duration                                 : 1 h 48 min
Bit rate mode                            : Constant
Bit rate                                 : 192 kb/s
Channel(s)                               : 2 channels
Channel layout                           : L R
Sampling rate                            : 48.0 kHz
Frame rate                               : 31.250 FPS (1536 SPF)
Compression mode                         : Lossy
Stream size                              : 148 MiB (8%)
Title                                    : Türkçe - Filmbol.org
Language                                 : Turkish
Service kind                             : Complete Main
Default                                  : Yes
Forced                                   : No

Audio #2
ID                                       : 3
Format                                   : AAC LC SBR
Format/Info                              : Advanced Audio Codec Low Complexity with Spectral Band Replication
Commercial name                          : HE-AAC
Format settings                          : Explicit
Codec ID                                 : A_AAC-2
Duration                                 : 1 h 48 min
Bit rate                                 : 48.0 kb/s
Channel(s)                               : 2 channels
Channel layout                           : L R
Sampling rate                            : 48.0 kHz
Frame rate                               : 23.438 FPS (2048 SPF)
Compression mode                         : Lossy
Stream size                              : 37.1 MiB (2%)
Title                                    : Orijinal Dil - Filmbol.org
Language                                 : English
Default                                  : No
Forced                                   : No

Text
ID                                       : 4
Format                                   : UTF-8
Codec ID                                 : S_TEXT/UTF8
Codec ID/Info                            : UTF-8 Plain Text
Duration                                 : 1 h 42 min
Bit rate                                 : 33 b/s
Count of elements                        : 852
Stream size                              : 25.1 KiB (0%)
Title                                    : Türkçe - Filmbol.org
Language                                 : Turkish
Default                                  : No
Forced                                   : No

Film Detayları


 Siyah Kuğu

 Siyah Kuğu

 Siyah Kuğu


Film Fragmanı


Film İndir


Rar Şifresi: filmbol.org


Uptobox ile indir

1Fichier ile indir

1Fichier'den İndiremiyor musun? Tıklayın!












Şuan Offine!
Rapor Et!
Şuan Offine!
caner Süper Üye
***
Super Üye
  • Konular0
  • Mesajlar51
  • Rep puanı 0
teşekkürler
Şuan Offine!
Rapor Et!
Şuan Offine!
Mehmet48 Üye
*
Üye
  • Konular0
  • Mesajlar2
  • Rep puanı 0
Teşekkür ederim
Şuan Online!
Rapor Et!
Şuan Online!
BroserBros Kurucu Admin
*******
Admin
28.05.2021 Yönetici Notu:

Kırık linkler kontrol edildi, kaldırıldı ve yenilendi. Tüm linkler tamamen çalışır durumda.
Şuan Offine!
Rapor Et!
Şuan Offine!
partner06 Üye
*
Üye
  • Konular0
  • Mesajlar1
  • Rep puanı 0
hoşbuldum
Şuan Online!
Rapor Et!
Şuan Online!
TORUKMAKTO Üye
*
Üye
  • Konular4
  • Mesajlar239
  • Rep puanı 14
teşekkürler
Şuan Offine!
Rapor Et!
Şuan Offine!
rasgun Üye
*
Üye
  • Konular0
  • Mesajlar34
  • Rep puanı 0
Teşekkürler.
Şuan Offine!
Rapor Et!
Şuan Offine!
Ahmetyel23 Üye
*
Üye
  • Konular0
  • Mesajlar1
  • Rep puanı 0
Teşekkürler.


Hızlı Menü: