⤤ Premium'a Yükselt
Filmbol Forum Film İndir BRRip XviD v Siyah Kuğu (Black Swan) - 2010 - TR - BRRip XviD | tt0947798

Filmbol TV kullanıma açıldı. Bu adresten giriş yapabilirsin: Giriş





Siyah Kuğu (Black Swan) - 2010 - TR - BRRip XviD | tt0947798
BroserBros
Siyah Kuğu (Black Swan) - 2010 - TR - BRRip XviD | tt0947798
3
569
  • Derecelendirme: 0/5 - 0 oy
  • 1
  • 2
  • 3
  • 4
  • 5
Konuyu Okuyanlar:2 Ziyaretçi
Şuan Online!
Filmin Yayınlanma Tarihi: 2010 
WWW
Rapor Et!
Şuan Online!
BroserBros Kurucu Admin
*******
Admin



 Siyah Kuğu



Nina bir balerindir. Hayatını annesi ile birlikte kalarak ve balerinlik yaparak geçirir. Nina işinde gayet iyidir fakat çalıştığı şirket Siyah ve Beyaz Kuğu oyunu için farklı arayışlara girer. Nina elinden gelen herşeyi yapar ve iyi bir performas sergilesede Ninanın siyah kuğu rolüne uygun olmadığını düşünülür. Büyük bir hayal kırıklığına uğrayan Nina, bu zor zamanında kendinin kötü taraflarını ortaya çıkarmaya başlayacaktır…

Siyah Kuğu (2010) (Black Swan) | tt0947798 Filmi Imdb'den 720,000 kişi tarafından oylandı ve 8,0 puan aldı. Bu film için editör puanı %91 olarak belirlendi. İyi Seyirler!

Teknik Detaylar

Kod :
General
Unique ID                                : 337742889891257975767672254515526835225 (0xFE16EA1DA0108D0AD10710D74D9D1C19)
Complete name                            : /home/BroserBros/Desktop/3/Siyah.Kuğu.BRRip.XviD.TR.Filmbol.avi
Format                                   : Matroska
Format version                           : Version 4
File size                                : 691 MiB
Duration                                 : 1 h 48 min
Overall bit rate                         : 894 kb/s
Movie name                               : Siyah Kuğu - Black Swan - 2010 | Filmbol.org
Encoded date                             : UTC 2021-05-27 07:11:57
Writing application                      : mkvmerge v53.0.0 ('Fool's Gold') 64-bit
Writing library                          : libebml v1.4.1 + libmatroska v1.6.2
FileExtension_Invalid                    : mkv mk3d mka mks

Video
ID                                       : 1
Format                                   : MPEG-4 Visual
Format profile                           : Advanced [email protected]
Format settings                          : BVOP3 / QPel
Format settings, BVOP                    : 3
Format settings, QPel                    : Yes
Format settings, GMC                     : No warppoints
Format settings, Matrix                  : Default (H.263)
Codec ID                                 : V_MS/VFW/FOURCC / XVID
Codec ID/Hint                            : XviD
Duration                                 : 1 h 48 min
Bit rate                                 : 764 kb/s
Width                                    : 640 pixels
Height                                   : 272 pixels
Display aspect ratio                     : 2.40:1
Original display aspect ratio            : 2.40:1
Frame rate mode                          : Constant
Frame rate                               : 23.976 (24000/1001) FPS
Color space                              : YUV
Chroma subsampling                       : 4:2:0
Bit depth                                : 8 bits
Scan type                                : Progressive
Compression mode                         : Lossy
Bits/(Pixel*Frame)                       : 0.183
Stream size                              : 591 MiB (85%)
Title                                    : Siyah Kuğu - Black Swan - 2010 | Filmbol.org
Writing library                          : XviD 65
Default                                  : Yes
Forced                                   : No

Audio
ID                                       : 2
Format                                   : MPEG Audio
Format version                           : Version 1
Format profile                           : Layer 3
Format settings                          : Joint stereo / MS Stereo
Codec ID                                 : A_MPEG/L3
Codec ID/Hint                            : MP3
Duration                                 : 1 h 48 min
Bit rate mode                            : Constant
Bit rate                                 : 128 kb/s
Channel(s)                               : 2 channels
Sampling rate                            : 48.0 kHz
Frame rate                               : 41.667 FPS (1152 SPF)
Compression mode                         : Lossy
Stream size                              : 99.0 MiB (14%)
Title                                    : Siyah Kuğu - Black Swan - 2010 | Filmbol.org
Writing library                          : LAME3.99.5UU
Default                                  : Yes
Forced                                   : No

Film Detayları


 Siyah Kuğu

 Siyah Kuğu

 Siyah Kuğu


Film Fragmanı


Film İndir


Rar Şifresi: filmbol.org



Uptobox ile indir

1Fichier ile indir

1Fichier'den İndiremiyor musun? Tıklayın!












Şuan Offine!
Rapor Et!
Şuan Offine!
Nyx Ulric Uzman Üye
**
Uzman Üye
  • Konular0
  • Mesajlar8
  • Rep puanı 0
Teşekkürler.
Şuan Offine!
Rapor Et!
Şuan Offine!
filmbolcu Süper Üye
***
Super Üye
  • Konular7
  • Mesajlar117
  • Rep puanı 2
Çok teşekkürler.
Şuan Online!
Rapor Et!
Şuan Online!
BroserBros Kurucu Admin
*******
Admin
28.05.2021 Yönetici Notu:

Kırık linkler kontrol edildi, kaldırıldı ve yenilendi. Tüm linkler tamamen çalışır durumda.


Hızlı Menü: