⤤ Premium'a Yükselt
Filmbol Forum Film İndir 3D v Buz Devri 4: Kıtalar Ayrılıyor (Ice Age: Continental Drift) - 2012 - TR+ORG - 3D | tt1667889

Filmbol TV kullanıma açıldı. Bu adresten giriş yapabilirsin: Giriş





Buz Devri 4: Kıtalar Ayrılıyor (Ice Age: Continental Drift) - 2012 - TR+ORG - 3D | tt1667889
BroserBros
Buz Devri 4: Kıtalar Ayrılıyor (Ice Age: Continental Drift) - 2012 - TR+ORG - 3D | tt1667889
13
1266
  • Derecelendirme: 0/5 - 0 oy
  • 1
  • 2
  • 3
  • 4
  • 5
Konuyu Okuyanlar:2 Ziyaretçi
Şuan Online!
Filmin Yayınlanma Tarihi: 2012 
WWW
Rapor Et!
Şuan Online!
BroserBros Kurucu Admin
*******
Admin



 Buz Devri 4: Kıtalar Ayrılıyor



Film’de yine ilk karşımıza çıkan maskot Scrat oluyor. Elinde fındık ile yine pek mantıklı haraketler yapmayan Scrat, bu sefer de yiyeceğini saklamak için bir dağ seçiyor. Dağında yaşamak için bir sebebi kalmamış ki Scrat’ın darbesi ile ortadan ikiye ayrılıyor. Bu durum bir çok şeyi tetikliyor ve kıtaların bölünmesine sebep oluyor. Böylesi bir olaydan etkilenen kahramanlarımız sudan kaçmak için derme çatma bir gemi inşaa ediyor ve olaylar gelişiyor…

Buz Devri 4: Kıtalar Ayrılıyor (2012) (Ice Age: Continental Drift) | tt1667889 Filmi Imdb'den 200,000 kişi tarafından oylandı ve 6,5 puan aldı. Bu film için editör puanı %71 olarak belirlendi. İyi Seyirler!

Teknik Detaylar

Kod :
General
Unique ID                                : 293218356351966412106949228285961961227 (0xDC97CD204EC387AEEED430B3026BFF0B)
Complete name                            : /home/BroserBros/Desktop/5/Buz.Devri.4.Kıtalar.Ayrılıyor.2012.3D.HSBS.BluRay.x264.TR.ENG.Filmbol.mkv
Format                                   : Matroska
Format version                           : Version 4
File size                                : 1.77 GiB
Duration                                 : 1 h 27 min
Overall bit rate                         : 2 895 kb/s
Movie name                               : Buz Devri 4: Kıtalar Ayrılıyor - Ice Age 4: Continental Drift - 2012 | Filmbol.org
Encoded date                             : UTC 2021-03-25 18:20:21
Writing application                      : mkvmerge v53.0.0 ('Fool's Gold') 64-bit
Writing library                          : libebml v1.4.1 + libmatroska v1.6.2

Video
ID                                       : 1
Format                                   : AVC
Format/Info                              : Advanced Video Codec
Format profile                           : [email protected]
Format settings                          : CABAC / 3 Ref Frames
Format settings, CABAC                   : Yes
Format settings, Reference frames        : 3 frames
Codec ID                                 : V_MPEG4/ISO/AVC
Duration                                 : 1 h 27 min
Bit rate                                 : 2 356 kb/s
Width                                    : 1 920 pixels
Height                                   : 1 080 pixels
Display aspect ratio                     : 16:9
Frame rate mode                          : Constant
Frame rate                               : 23.976 (24000/1001) FPS
Color space                              : YUV
Chroma subsampling                       : 4:2:0
Bit depth                                : 8 bits
Scan type                                : Progressive
Bits/(Pixel*Frame)                       : 0.047
Stream size                              : 1.44 GiB (81%)
Title                                    : 3D - Filmbol.org
Writing library                          : x264 core 125 r2200 999b753
Encoding settings                        : cabac=1 / ref=4 / deblock=1:-1:-1 / analyse=0x3:0x133 / me=umh / subme=10 / psy=1 / psy_rd=1.00:0.15 / mixed_ref=1 / me_range=24 / chroma_me=1 / trellis=2 / 8x8dct=1 / cqm=0 / deadzone=21,11 / fast_pskip=1 / chroma_qp_offset=-3 / threads=12 / lookahead_threads=2 / sliced_threads=0 / nr=0 / decimate=1 / interlaced=0 / bluray_compat=0 / constrained_intra=0 / bframes=8 / b_pyramid=1 / b_adapt=2 / b_bias=3 / direct=3 / weightb=1 / open_gop=0 / weightp=2 / keyint=240 / keyint_min=23 / scenecut=40 / intra_refresh=0 / rc_lookahead=60 / rc=2pass / mbtree=1 / bitrate=2356 / ratetol=1.0 / qcomp=0.60 / qpmin=10 / qpmax=51 / qpstep=4 / cplxblur=20.0 / qblur=0.5 / ip_ratio=1.40 / aq=1:1.00
Default                                  : Yes
Forced                                   : No

Audio #1
ID                                       : 2
Format                                   : AC-3
Format/Info                              : Audio Coding 3
Commercial name                          : Dolby Digital
Codec ID                                 : A_AC3
Duration                                 : 1 h 27 min
Bit rate mode                            : Constant
Bit rate                                 : 448 kb/s
Channel(s)                               : 6 channels
Channel layout                           : L R C LFE Ls Rs
Sampling rate                            : 48.0 kHz
Frame rate                               : 31.250 FPS (1536 SPF)
Compression mode                         : Lossy
Delay relative to video                  : -125 ms
Stream size                              : 281 MiB (15%)
Title                                    : Türkçe - Filmbol.org
Language                                 : Turkish
Service kind                             : Complete Main
Default                                  : Yes
Forced                                   : No

Audio #2
ID                                       : 3
Format                                   : AAC LC
Format/Info                              : Advanced Audio Codec Low Complexity
Codec ID                                 : A_AAC-2
Duration                                 : 1 h 27 min
Bit rate                                 : 92.0 kb/s
Channel(s)                               : 2 channels
Channel layout                           : L R
Sampling rate                            : 48.0 kHz
Frame rate                               : 46.875 FPS (1024 SPF)
Compression mode                         : Lossy
Delay relative to video                  : -125 ms
Stream size                              : 57.7 MiB (3%)
Title                                    : Orjinal Dil - Filmbol.org
Language                                 : English
Default                                  : No
Forced                                   : No

Text
ID                                       : 4
Format                                   : UTF-8
Codec ID                                 : S_TEXT/UTF8
Codec ID/Info                            : UTF-8 Plain Text
Duration                                 : 1 h 19 min
Bit rate                                 : 61 b/s
Count of elements                        : 1143
Stream size                              : 36.0 KiB (0%)
Title                                    : Türkçe - Filmbol.org
Language                                 : Turkish
Default                                  : Yes
Forced                                   : No

Film Detayları


 Buz Devri 4: Kıtalar Ayrılıyor

 Buz Devri 4: Kıtalar Ayrılıyor

 Buz Devri 4: Kıtalar Ayrılıyor


Film Fragmanı


Film İndir


Rar Şifresi: filmbol.org


Uptobox ile indir

1Fichier ile indir

1Fichier'den İndiremiyor musun? Tıklayın!












Şuan Offine!
Rapor Et!
Şuan Offine!
otobus Üye
*
Üye
  • Konular0
  • Mesajlar2
  • Rep puanı 0
teşekkürler
Şuan Offine!
Rapor Et!
Şuan Offine!
occak Üye
*
Üye
  • Konular0
  • Mesajlar1
  • Rep puanı 0
Teşekkürler
Şuan Offine!
Rapor Et!
Şuan Offine!
apkinar Üye
*
Üye
  • Konular0
  • Mesajlar2
  • Rep puanı 0
teşekkürler
Şuan Offine!
Rapor Et!
Şuan Offine!
eminnn Üye
*
Üye
  • Konular0
  • Mesajlar2
  • Rep puanı 0
güzel filme benziyor
Şuan Online!
Rapor Et!
Şuan Online!
BroserBros Kurucu Admin
*******
Admin
28.03.2021 Yönetici Notu:

Kırık linkler kontrol edildi, kaldırıldı ve yenilendi. Tüm linkler tamamen çalışır durumda.
Şuan Offine!
Rapor Et!
Şuan Offine!
mussa Süper Üye
***
Super Üye
  • Konular0
  • Mesajlar21
  • Rep puanı 0
haarikaaaaa
Şuan Offine!
Rapor Et!
Şuan Offine!
ghothar Üye
*
Üye
  • Konular0
  • Mesajlar1
  • Rep puanı 0
Teşekkürler.
Şuan Offine!
Rapor Et!
Şuan Offine!
talat41 Üye
*
Üye
  • Konular0
  • Mesajlar135
  • Rep puanı 0
Teşekkürler.
Şuan Offine!
Rapor Et!
Şuan Offine!
sozcelyk Üye
*
Üye
  • Konular0
  • Mesajlar11
  • Rep puanı 0
Teşekkürler.


Hızlı Menü: