⤤ Premium'a Yükselt

Merhaba, Ziyaretçi. Mega linklerinin bir kısmı deaktif halde ve yenileme çalışmalarına başladık. Bu süre içinde ikinci duyuruya kadar mega linklerini raporlamayın!! x

Filmbol Forum Film İndir BRRip XviD v Buz Devri 4: Kıtalar Ayrılıyor (Ice Age: Continental Drift) - 2012 - TR - BRRip XviD | tt1667889

Filmbol TV kullanıma açıldı. Bu adresten giriş yapabilirsin: Giriş





Buz Devri 4: Kıtalar Ayrılıyor (Ice Age: Continental Drift) - 2012 - TR - BRRip XviD | tt1667889
BroserBros
Buz Devri 4: Kıtalar Ayrılıyor (Ice Age: Continental Drift) - 2012 - TR - BRRip XviD | tt1667889
9
1484
  • Derecelendirme: 0/5 - 0 oy
  • 1
  • 2
  • 3
  • 4
  • 5
Konuyu Okuyanlar:4 Ziyaretçi
Şuan Online!
Filmin Yayınlanma Tarihi: 2012 
WWW
Rapor Et!
Şuan Online!
BroserBros Kurucu Admin
*******
Admin



 Buz Devri 4: Kıtalar Ayrılıyor



Film’de yine ilk karşımıza çıkan maskot Scrat oluyor. Elinde fındık ile yine pek mantıklı haraketler yapmayan Scrat, bu sefer de yiyeceğini saklamak için bir dağ seçiyor. Dağında yaşamak için bir sebebi kalmamış ki Scrat’ın darbesi ile ortadan ikiye ayrılıyor. Bu durum bir çok şeyi tetikliyor ve kıtaların bölünmesine sebep oluyor. Böylesi bir olaydan etkilenen kahramanlarımız sudan kaçmak için derme çatma bir gemi inşaa ediyor ve olaylar gelişiyor…

Buz Devri 4: Kıtalar Ayrılıyor (2012) (Ice Age: Continental Drift) | tt1667889 Filmi Imdb'den 200,000 kişi tarafından oylandı ve 6,5 puan aldı. Bu film için editör puanı %71 olarak belirlendi. İyi Seyirler!

Teknik Detaylar

Kod :
General
Unique ID                                : 96374370014511348665470881238735521711 (0x4881074C50E7A3D96C744E7BE97E07AF)
Complete name                            : /home/BroserBros/Desktop/5/Buz.Devri.4.Kıtalar.Ayrılıyor.2012.BRRip.XViD.TR.Filmbol.avi
Format                                   : Matroska
Format version                           : Version 4
File size                                : 699 MiB
Duration                                 : 1 h 27 min
Overall bit rate                         : 1 114 kb/s
Movie name                               : Buz Devri 4: Kıtalar Ayrılıyor - Ice Age 4: Continental Drift - 2012 | Filmbol.org
Encoded date                             : UTC 2021-03-26 14:15:20
Writing application                      : mkvmerge v53.0.0 ('Fool's Gold') 64-bit
Writing library                          : libebml v1.4.1 + libmatroska v1.6.2
FileExtension_Invalid                    : mkv mk3d mka mks

Video
ID                                       : 1
Format                                   : MPEG-4 Visual
Format profile                           : Advanced [email protected]
Format settings                          : BVOP1 / Custom Matrix
Format settings, BVOP                    : 1
Format settings, QPel                    : No
Format settings, GMC                     : No warppoints
Format settings, Matrix                  : Custom
Codec ID                                 : V_MS/VFW/FOURCC / XVID
Codec ID/Hint                            : XviD
Duration                                 : 1 h 27 min
Bit rate                                 : 984 kb/s
Width                                    : 640 pixels
Height                                   : 272 pixels
Display aspect ratio                     : 2.35:1
Frame rate mode                          : Constant
Frame rate                               : 23.976 (24000/1001) FPS
Color space                              : YUV
Chroma subsampling                       : 4:2:0
Bit depth                                : 8 bits
Scan type                                : Progressive
Compression mode                         : Lossy
Bits/(Pixel*Frame)                       : 0.236
Stream size                              : 618 MiB (88%)
Title                                    : Buz Devri 4: Kıtalar Ayrılıyor - Ice Age 4: Continental Drift - 2012 | Filmbol.org
Writing library                          : XviD 1.2.1 (UTC 2008-12-04)
Default                                  : Yes
Forced                                   : No

Audio
ID                                       : 2
Format                                   : MPEG Audio
Format version                           : Version 1
Format profile                           : Layer 3
Format settings                          : Joint stereo / MS Stereo
Codec ID                                 : A_MPEG/L3
Codec ID/Hint                            : MP3
Duration                                 : 1 h 27 min
Bit rate mode                            : Constant
Bit rate                                 : 128 kb/s
Channel(s)                               : 2 channels
Sampling rate                            : 48.0 kHz
Frame rate                               : 41.667 FPS (1152 SPF)
Compression mode                         : Lossy
Stream size                              : 80.2 MiB (11%)
Title                                    : Buz Devri 4: Kıtalar Ayrılıyor - Ice Age 4: Continental Drift - 2012 | Filmbol.org
Writing library                          : LAME3.98.4
Default                                  : Yes
Forced                                   : No

Film Detayları


 Buz Devri 4: Kıtalar Ayrılıyor

 Buz Devri 4: Kıtalar Ayrılıyor

 Buz Devri 4: Kıtalar Ayrılıyor


Film Fragmanı


Film İndir


Rar Şifresi: filmbol.org



Uptobox ile indir

1Fichier ile indir

1Fichier'den İndiremiyor musun? Tıklayın!












Şuan Offine!
Rapor Et!
Şuan Offine!
yasakral Uzman Üye
**
Uzman Üye
  • Konular0
  • Mesajlar4
  • Rep puanı 0
bebelere baloon
Şuan Online!
Rapor Et!
Şuan Online!
BroserBros Kurucu Admin
*******
Admin
28.03.2021 Yönetici Notu:

Kırık linkler kontrol edildi, kaldırıldı ve yenilendi. Tüm linkler tamamen çalışır durumda.
Şuan Offine!
Rapor Et!
Şuan Offine!
darkportal Uzman Üye
**
Uzman Üye
  • Konular0
  • Mesajlar9
  • Rep puanı 0
teşekkürler
Şuan Offine!
Rapor Et!
Şuan Offine!
Casablanca Üye
*
Üye
  • Konular0
  • Mesajlar110
  • Rep puanı 0
Teşekkür
Şuan Offine!
Rapor Et!
Şuan Offine!
PuNkDuNk Üye
*
Üye
  • Konular0
  • Mesajlar174
  • Rep puanı 0
teşekkürler
Şuan Offine!
Rapor Et!
Şuan Offine!
serdarr.isk Üye
*
Üye
  • Konular0
  • Mesajlar5
  • Rep puanı 0
Teşekkürler.
Şuan Offine!
Rapor Et!
Şuan Offine!
kemallgulhan Üye
*
Üye
  • Konular0
  • Mesajlar13
  • Rep puanı 0
Teşekkürler.
Şuan Offine!
Rapor Et!
Şuan Offine!
izzetpasa Üye
*
Üye
  • Konular0
  • Mesajlar60
  • Rep puanı 0
Teşekkürler.
Şuan Offine!
Rapor Et!
Şuan Offine!
HASANSERBEST Üye
*
Üye
  • Konular0
  • Mesajlar38
  • Rep puanı 0
Teşekkürler.


Hızlı Menü: