⤤ Premium'a Yükselt

Merhaba, Ziyaretçi. Mega linklerinin bir kısmı deaktif halde ve yenileme çalışmalarına başladık. Bu süre içinde ikinci duyuruya kadar mega linklerini raporlamayın!! x

Filmbol Forum Film İndir 1080P v Kaçış Odası (Escape Room) - 2017 - TR+ORG - 1080P | tt5159414

Filmbol TV kullanıma açıldı. Bu adresten giriş yapabilirsin: Giriş





Kaçış Odası (Escape Room) - 2017 - TR+ORG - 1080P | tt5159414
BroserBros
Kaçış Odası (Escape Room) - 2017 - TR+ORG - 1080P | tt5159414
4
735
  • Derecelendirme: 0/5 - 0 oy
  • 1
  • 2
  • 3
  • 4
  • 5
Konuyu Okuyanlar:2 Ziyaretçi
Şuan Online!
Filmin Yayınlanma Tarihi: 2017 
WWW
Rapor Et!
Şuan Online!
BroserBros Kurucu Admin
*******
Admin



 Kaçış Odası



Korku filmlerini ve oyunlarını seven ikili Jeff ve Ben ve bu oyunda birlikte olacakları kız arkadaşları Jess ve Angie, Kaçış Odası oyununa katılırlar. Burada hedef, bir odaya kilitli kaldıktan sonra çıkmaktır. Ancak oyun pekte tahmin ettikleri gitmez ve odadan çıkmak hayli zordur…

Kaçış Odası (2017) (Escape Room) | tt5159414 Filmi Imdb'den 10,000 kişi tarafından oylandı ve 4,2 puan aldı. Bu film için editör puanı %51 olarak belirlendi. İyi Seyirler!

Teknik Detaylar

Kod :
General
Unique ID                                : 110212607187500511381156262303050050781 (0x52EA2D1129C6E4C62E40B745C6492CDD)
Complete name                            : /home/BroserBros/Desktop/2/Kaçış.Odası.2017.1080p.BluRay.x264.TR.ENG.Filmbol.mkv
Format                                   : Matroska
Format version                           : Version 4
File size                                : 1.54 GiB
Duration                                 : 1 h 29 min
Overall bit rate                         : 2 457 kb/s
Movie name                               : Kaçış Odası - Escape Room - 2017 | Filmbol.org
Encoded date                             : UTC 2021-05-25 12:50:51
Writing application                      : mkvmerge v53.0.0 ('Fool's Gold') 64-bit
Writing library                          : libebml v1.4.1 + libmatroska v1.6.2

Video
ID                                       : 1
Format                                   : AVC
Format/Info                              : Advanced Video Codec
Format profile                           : [email protected]
Format settings                          : CABAC / 2 Ref Frames
Format settings, CABAC                   : Yes
Format settings, Reference frames        : 2 frames
Codec ID                                 : V_MPEG4/ISO/AVC
Duration                                 : 1 h 29 min
Bit rate                                 : 2 070 kb/s
Width                                    : 1 920 pixels
Height                                   : 816 pixels
Display aspect ratio                     : 2.35:1
Frame rate mode                          : Constant
Frame rate                               : 23.976 (24000/1001) FPS
Color space                              : YUV
Chroma subsampling                       : 4:2:0
Bit depth                                : 8 bits
Scan type                                : Progressive
Bits/(Pixel*Frame)                       : 0.055
Stream size                              : 1.30 GiB (84%)
Title                                    : Kaçış Odası - Escape Room - 2017 | Filmbol.org
Language                                 : English
Default                                  : Yes
Forced                                   : No

Audio #1
ID                                       : 2
Format                                   : AC-3
Format/Info                              : Audio Coding 3
Commercial name                          : Dolby Digital
Codec ID                                 : A_AC3
Duration                                 : 1 h 29 min
Bit rate mode                            : Constant
Bit rate                                 : 192 kb/s
Channel(s)                               : 2 channels
Channel layout                           : L R
Sampling rate                            : 48.0 kHz
Frame rate                               : 31.250 FPS (1536 SPF)
Compression mode                         : Lossy
Stream size                              : 123 MiB (8%)
Title                                    : Kaçış Odası - Escape Room - 2017 | Filmbol.org
Language                                 : Turkish
Service kind                             : Complete Main
Default                                  : Yes
Forced                                   : No

Audio #2
ID                                       : 3
Format                                   : AC-3
Format/Info                              : Audio Coding 3
Commercial name                          : Dolby Digital
Codec ID                                 : A_AC3
Duration                                 : 1 h 29 min
Bit rate mode                            : Constant
Bit rate                                 : 192 kb/s
Channel(s)                               : 2 channels
Channel layout                           : L R
Sampling rate                            : 48.0 kHz
Frame rate                               : 31.250 FPS (1536 SPF)
Compression mode                         : Lossy
Stream size                              : 123 MiB (8%)
Title                                    : Kaçış Odası - Escape Room - 2017 | Filmbol.org
Language                                 : English
Service kind                             : Complete Main
Default                                  : No
Forced                                   : No

Film Detayları


 Kaçış Odası

 Kaçış Odası

 Kaçış Odası


Film Fragmanı


Film İndir


Rar Şifresi: filmbol.org


Uptobox ile indir

1Fichier ile indir

1Fichier'den İndiremiyor musun? Tıklayın!












Şuan Offine!
Rapor Et!
Şuan Offine!
ahmetyee1 Süper Üye
***
Super Üye
  • Konular2
  • Mesajlar75
  • Rep puanı 0
güzel
Şuan Online!
Rapor Et!
Şuan Online!
BroserBros Kurucu Admin
*******
Admin
27.05.2021 Yönetici Notu:

Kırık linkler kontrol edildi, kaldırıldı ve yenilendi. Tüm linkler tamamen çalışır durumda.
Şuan Online!
Rapor Et!
Şuan Online!
hunter Süper Üye
***
Super Üye
  • Konular1
  • Mesajlar436
  • Rep puanı 5
Teşekkürler.
Şuan Offine!
Rapor Et!
Şuan Offine!
askbocegi31 Üye
*
Üye
  • Konular0
  • Mesajlar100
  • Rep puanı 0
Teşekkürler.


Hızlı Menü: