⤤ Premium'a Yükselt

Merhaba, Ziyaretçi. Mega linklerinin bir kısmı deaktif halde ve yenileme çalışmalarına başladık. Bu süre içinde ikinci duyuruya kadar mega linklerini raporlamayın!! x

Filmbol Forum Film İndir BRRip XviD v Kaçış Odası (Escape Room) - 2017 - TR - BRRip XviD | tt5159414

Filmbol TV kullanıma açıldı. Bu adresten giriş yapabilirsin: Giriş





Kaçış Odası (Escape Room) - 2017 - TR - BRRip XviD | tt5159414
BroserBros
Kaçış Odası (Escape Room) - 2017 - TR - BRRip XviD | tt5159414
1
498
  • Derecelendirme: 0/5 - 0 oy
  • 1
  • 2
  • 3
  • 4
  • 5
Konuyu Okuyanlar:2 Ziyaretçi
Şuan Online!
Filmin Yayınlanma Tarihi: 2017 
WWW
Rapor Et!
Şuan Online!
BroserBros Kurucu Admin
*******
Admin



 Kaçış Odası



Korku filmlerini ve oyunlarını seven ikili Jeff ve Ben ve bu oyunda birlikte olacakları kız arkadaşları Jess ve Angie, Kaçış Odası oyununa katılırlar. Burada hedef, bir odaya kilitli kaldıktan sonra çıkmaktır. Ancak oyun pekte tahmin ettikleri gitmez ve odadan çıkmak hayli zordur…

Kaçış Odası (2017) (Escape Room) | tt5159414 Filmi Imdb'den 10,000 kişi tarafından oylandı ve 4,2 puan aldı. Bu film için editör puanı %51 olarak belirlendi. İyi Seyirler!

Teknik Detaylar

Kod :
General
Unique ID                                : 301424535705471293193238030499853217 (0x3A0D6083735D1BD92EC80F6BDE33A1)
Complete name                            : /home/BroserBros/Desktop/2/Kaçış.Odası.2017.BRRip.XviD.TR.Filmbol.avi
Format                                   : Matroska
Format version                           : Version 4
File size                                : 711 MiB
Duration                                 : 1 h 29 min
Overall bit rate                         : 1 107 kb/s
Movie name                               : Kaçış Odası - Escape Room - 2017 | Filmbol.org
Encoded date                             : UTC 2021-05-25 12:51:54
Writing application                      : mkvmerge v53.0.0 ('Fool's Gold') 64-bit
Writing library                          : libebml v1.4.1 + libmatroska v1.6.2
FileExtension_Invalid                    : mkv mk3d mka mks

Video
ID                                       : 1
Format                                   : MPEG-4 Visual
Format profile                           : Advanced [email protected]
Format settings                          : BVOP2
Format settings, BVOP                    : 2
Format settings, QPel                    : No
Format settings, GMC                     : No warppoints
Format settings, Matrix                  : Default (H.263)
Muxing mode                              : Packed bitstream
Codec ID                                 : V_MS/VFW/FOURCC / XVID
Codec ID/Hint                            : XviD
Duration                                 : 1 h 29 min
Bit rate                                 : 978 kb/s
Width                                    : 720 pixels
Height                                   : 304 pixels
Display aspect ratio                     : 2.35:1
Frame rate mode                          : Constant
Frame rate                               : 23.976 (23976/1000) FPS
Color space                              : YUV
Chroma subsampling                       : 4:2:0
Bit depth                                : 8 bits
Scan type                                : Progressive
Compression mode                         : Lossy
Bits/(Pixel*Frame)                       : 0.186
Stream size                              : 628 MiB (88%)
Title                                    : Kaçış Odası - Escape Room - 2017 | Filmbol.org
Writing library                          : XviD 67
Default                                  : Yes
Forced                                   : No

Audio
ID                                       : 2
Format                                   : MPEG Audio
Format version                           : Version 1
Format profile                           : Layer 3
Format settings                          : Joint stereo / MS Stereo
Codec ID                                 : A_MPEG/L3
Codec ID/Hint                            : MP3
Duration                                 : 1 h 29 min
Bit rate mode                            : Constant
Bit rate                                 : 128 kb/s
Channel(s)                               : 2 channels
Sampling rate                            : 48.0 kHz
Frame rate                               : 41.667 FPS (1152 SPF)
Compression mode                         : Lossy
Stream size                              : 82.2 MiB (12%)
Title                                    : Kaçış Odası - Escape Room - 2017 | Filmbol.org
Language                                 : Turkish
Default                                  : Yes
Forced                                   : No

Film Detayları


 Kaçış Odası

 Kaçış Odası

 Kaçış Odası


Film Fragmanı


Film İndir


Rar Şifresi: filmbol.org



Uptobox ile indir

1Fichier ile indir

1Fichier'den İndiremiyor musun? Tıklayın!












Şuan Online!
Rapor Et!
Şuan Online!
BroserBros Kurucu Admin
*******
Admin
27.05.2021 Yönetici Notu:

Kırık linkler kontrol edildi, kaldırıldı ve yenilendi. Tüm linkler tamamen çalışır durumda.


Hızlı Menü: