⤤ Premium'a Yükselt
Filmbol Forum Film İndir 720P v A Second Chance: Rivals! (A Second Chance: Rivals!) - 2019 - TR+ORG - 720P | tt9810420

Filmbol TV kullanıma açıldı. Bu adresten giriş yapabilirsin: Giriş





A Second Chance: Rivals! (A Second Chance: Rivals!) - 2019 - TR+ORG - 720P | tt9810420
BroserBros
A Second Chance: Rivals! (A Second Chance: Rivals!) - 2019 - TR+ORG - 720P | tt9810420
1
437
  • Derecelendirme: 0/5 - 0 oy
  • 1
  • 2
  • 3
  • 4
  • 5
Konuyu Okuyanlar:2 Ziyaretçi
Şuan Online!
Filmin Yayınlanma Tarihi: 2019 
WWW
Rapor Et!
Şuan Online!
BroserBros Kurucu Admin
*******
Admin



 A Second Chance: Rivals!



Maddy Cornell, bir jimnastik yıldızıdır. Hedefi, Avustralya milli jimnastik takımına girebilmektir ancak milli takım onu takıma almaz. Daha sonra Maddy’e bir koçluk görevi gelir. Maddy bunu biraz düşündükten sonra kabul eder. Artık tek hedefi koçluk yaptığı takımın üst liglere çıkması ve şampiyon olmasıdır….

A Second Chance: Rivals! (2019) (A Second Chance: Rivals!) | tt9810420 Filmi Imdb'den 120 kişi tarafından oylandı ve 5,5 puan aldı. Bu film için editör puanı %49 olarak belirlendi. İyi Seyirler!

Teknik Detaylar

Kod :
General
Unique ID                                : 195659447742555094222600937846162282174 (0x9332A390FAD1D4AB03701BE4A70F56BE)
Complete name                            : /home/BroserBros/Desktop/1/A.Second.Chance.Rivals!.2019.720p.BluRay.x264.TR.ENG.Filmbol.mkv
Format                                   : Matroska
Format version                           : Version 4
File size                                : 1.14 GiB
Duration                                 : 1 h 29 min
Overall bit rate                         : 1 830 kb/s
Movie name                               : A Second Chance: Rivals! - 2019 | Filmbol.org
Encoded date                             : UTC 2021-05-25 12:37:11
Writing application                      : mkvmerge v53.0.0 ('Fool's Gold') 64-bit
Writing library                          : libebml v1.4.1 + libmatroska v1.6.2

Video
ID                                       : 1
Format                                   : AVC
Format/Info                              : Advanced Video Codec
Format profile                           : [email protected]
Format settings                          : CABAC / 2 Ref Frames
Format settings, CABAC                   : Yes
Format settings, Reference frames        : 2 frames
Codec ID                                 : V_MPEG4/ISO/AVC
Duration                                 : 1 h 29 min
Bit rate                                 : 1 252 kb/s
Width                                    : 1 280 pixels
Height                                   : 716 pixels
Display aspect ratio                     : 16:9
Frame rate mode                          : Constant
Frame rate                               : 25.000 FPS
Color space                              : YUV
Chroma subsampling                       : 4:2:0
Bit depth                                : 8 bits
Scan type                                : Progressive
Bits/(Pixel*Frame)                       : 0.055
Stream size                              : 798 MiB (68%)
Title                                    : A Second Chance: Rivals!
Language                                 : English
Default                                  : Yes
Forced                                   : No

Audio #1
ID                                       : 2
Format                                   : AC-3
Format/Info                              : Audio Coding 3
Commercial name                          : Dolby Digital
Codec ID                                 : A_AC3
Duration                                 : 1 h 29 min
Bit rate mode                            : Constant
Bit rate                                 : 384 kb/s
Channel(s)                               : 6 channels
Channel layout                           : L R C LFE Ls Rs
Sampling rate                            : 48.0 kHz
Frame rate                               : 31.250 FPS (1536 SPF)
Compression mode                         : Lossy
Stream size                              : 245 MiB (21%)
Title                                    : A Second Chance: Rivals!
Language                                 : Turkish
Service kind                             : Complete Main
Default                                  : Yes
Forced                                   : No

Audio #2
ID                                       : 3
Format                                   : AC-3
Format/Info                              : Audio Coding 3
Commercial name                          : Dolby Digital
Codec ID                                 : A_AC3
Duration                                 : 1 h 29 min
Bit rate mode                            : Constant
Bit rate                                 : 192 kb/s
Channel(s)                               : 2 channels
Channel layout                           : L R
Sampling rate                            : 48.0 kHz
Frame rate                               : 31.250 FPS (1536 SPF)
Compression mode                         : Lossy
Stream size                              : 122 MiB (10%)
Title                                    : A Second Chance: Rivals!
Language                                 : English
Service kind                             : Complete Main
Default                                  : No
Forced                                   : No

Film Detayları


 A Second Chance: Rivals!

 A Second Chance: Rivals!

 A Second Chance: Rivals!


Film Fragmanı


Film İndir


Rar Şifresi: filmbol.org


Uptobox ile indir

1Fichier ile indir

1Fichier'den İndiremiyor musun? Tıklayın!












Şuan Online!
Rapor Et!
Şuan Online!
BroserBros Kurucu Admin
*******
Admin
27.05.2021 Yönetici Notu:

Kırık linkler kontrol edildi, kaldırıldı ve yenilendi. Tüm linkler tamamen çalışır durumda.


Hızlı Menü: