⤤ Premium'a Yükselt
Filmbol Forum Film İndir BRRip XviD v A Second Chance: Rivals! (A Second Chance: Rivals!) - 2019 - TR - BRRip XviD | tt9810420

Filmbol TV kullanıma açıldı. Bu adresten giriş yapabilirsin: Giriş





A Second Chance: Rivals! (A Second Chance: Rivals!) - 2019 - TR - BRRip XviD | tt9810420
BroserBros
A Second Chance: Rivals! (A Second Chance: Rivals!) - 2019 - TR - BRRip XviD | tt9810420
1
426
  • Derecelendirme: 0/5 - 0 oy
  • 1
  • 2
  • 3
  • 4
  • 5
Konuyu Okuyanlar:3 Ziyaretçi
Şuan Online!
Filmin Yayınlanma Tarihi: 2019 
WWW
Rapor Et!
Şuan Online!
BroserBros Kurucu Admin
*******
Admin



 A Second Chance: Rivals!



Maddy Cornell, bir jimnastik yıldızıdır. Hedefi, Avustralya milli jimnastik takımına girebilmektir ancak milli takım onu takıma almaz. Daha sonra Maddy’e bir koçluk görevi gelir. Maddy bunu biraz düşündükten sonra kabul eder. Artık tek hedefi koçluk yaptığı takımın üst liglere çıkması ve şampiyon olmasıdır….

A Second Chance: Rivals! (2019) (A Second Chance: Rivals!) | tt9810420 Filmi Imdb'den 120 kişi tarafından oylandı ve 5,5 puan aldı. Bu film için editör puanı %49 olarak belirlendi. İyi Seyirler!

Teknik Detaylar

Kod :
General
Unique ID                                : 63440184014802082431551745066504120941 (0x2FBA228FD430C7F3CAD615542A296A6D)
Complete name                            : /home/BroserBros/Desktop/1/A.Second.Chance.Rivals!.2019.BRRip.XviD.TR.Filmbol.avi
Format                                   : Matroska
Format version                           : Version 4
File size                                : 1.03 GiB
Duration                                 : 1 h 29 min
Overall bit rate                         : 1 657 kb/s
Movie name                               : A Second Chance: Rivals! - 2019 | Filmbol.org
Encoded date                             : UTC 2021-05-25 12:45:39
Writing application                      : mkvmerge v53.0.0 ('Fool's Gold') 64-bit
Writing library                          : libebml v1.4.1 + libmatroska v1.6.2
FileExtension_Invalid                    : mkv mk3d mka mks

Video
ID                                       : 1
Format                                   : MPEG-4 Visual
Format profile                           : Advanced [email protected]
Format settings                          : BVOP1
Format settings, BVOP                    : 1
Format settings, QPel                    : No
Format settings, GMC                     : No warppoints
Format settings, Matrix                  : Default (MPEG)
Muxing mode                              : Packed bitstream
Codec ID                                 : V_MS/VFW/FOURCC / XVID
Codec ID/Hint                            : XviD
Duration                                 : 1 h 29 min
Bit rate                                 : 1 528 kb/s
Width                                    : 720 pixels
Height                                   : 404 pixels
Display aspect ratio                     : 16:9
Frame rate mode                          : Constant
Frame rate                               : 25.000 FPS
Color space                              : YUV
Chroma subsampling                       : 4:2:0
Bit depth                                : 8 bits
Scan type                                : Progressive
Compression mode                         : Lossy
Bits/(Pixel*Frame)                       : 0.210
Stream size                              : 974 MiB (92%)
Title                                    : A Second Chance: Rivals! - 2019 | Filmbol.org
Writing library                          : XviD 64
Default                                  : Yes
Forced                                   : No

Audio
ID                                       : 2
Format                                   : MPEG Audio
Format version                           : Version 1
Format profile                           : Layer 3
Format settings                          : Joint stereo
Codec ID                                 : A_MPEG/L3
Codec ID/Hint                            : MP3
Duration                                 : 1 h 29 min
Bit rate mode                            : Constant
Bit rate                                 : 128 kb/s
Channel(s)                               : 2 channels
Sampling rate                            : 48.0 kHz
Frame rate                               : 41.667 FPS (1152 SPF)
Compression mode                         : Lossy
Stream size                              : 81.6 MiB (8%)
Title                                    : A Second Chance: Rivals! - 2019 | Filmbol.org
Writing library                          : LAME3.99.5
Language                                 : Turkish
Default                                  : Yes
Forced                                   : No

Film Detayları


 A Second Chance: Rivals!

 A Second Chance: Rivals!

 A Second Chance: Rivals!


Film Fragmanı


Film İndir


Rar Şifresi: filmbol.org



Uptobox ile indir

1Fichier ile indir

1Fichier'den İndiremiyor musun? Tıklayın!












Şuan Online!
Rapor Et!
Şuan Online!
BroserBros Kurucu Admin
*******
Admin
27.05.2021 Yönetici Notu:

Kırık linkler kontrol edildi, kaldırıldı ve yenilendi. Tüm linkler tamamen çalışır durumda.


Hızlı Menü: