⤤ Premium'a Yükselt
Filmbol Forum Film İndir 720P v Buz Devri 2: Erime başlıyor (Ice Age: The Meltdown) - 2006 - TR+ORG - 720P | tt0438097

Filmbol TV kullanıma açıldı. Bu adresten giriş yapabilirsin: Giriş





Buz Devri 2: Erime başlıyor (Ice Age: The Meltdown) - 2006 - TR+ORG - 720P | tt0438097
BroserBros
Buz Devri 2: Erime başlıyor (Ice Age: The Meltdown) - 2006 - TR+ORG - 720P | tt0438097
7
1608
  • Derecelendirme: 0/5 - 0 oy
  • 1
  • 2
  • 3
  • 4
  • 5
Konuyu Okuyanlar:3 Ziyaretçi
Şuan Online!
Filmin Yayınlanma Tarihi: 2006 
WWW
Rapor Et!
Şuan Online!
BroserBros Kurucu Admin
*******
Admin



 Buz Devri 2: Erime başlıyor



Serinin ikinci filminde, bizi yeni karakterler ve yine kusursuz sayılabilir senaryosu ile Buz Devri karşılıyor. Serinin ikinci filmi başlar başlamaz sizi konuya sürükleyebilir çünkü zaten herkesin hakim olduğu can alıcı bir noktadan giriyor, eriyen buzullar! Ayrıca filmde ilk filme göre animasyonların daha da geliştiğini göreceksiniz. Kahramanlarımız bu filmde eriyen buzullardan kaçmak zorundadır ve bu kaçışta ekibe yeni yüzlerde katılacaktır.

Buz Devri 2: Erime başlıyor (2006) (Ice Age: The Meltdown) | tt0438097 Filmi Imdb'den 260,000 kişi tarafından oylandı ve 6,8 puan aldı. Bu film için editör puanı %74 olarak belirlendi. İyi Seyirler!

Teknik Detaylar

Kod :
General
Unique ID                                : 81261463523148721324221064476917832074 (0x3D22637ACA91AC77A888EC5B1A55198A)
Complete name                            : /home/BroserBros/Desktop/3/Buz.Devri.2.Erime.Başlıyor.2006.720p.BluRay.x264.TR.ENG.Filmbol.mkv
Format                                   : Matroska
Format version                           : Version 4
File size                                : 1.67 GiB
Duration                                 : 1 h 30 min
Overall bit rate                         : 2 632 kb/s
Movie name                               : Buz Devri 2: Erime Başlıyor - Ice Age: The Meltdown - 2006 | Filmbol.org
Encoded date                             : UTC 2021-03-25 14:44:47
Writing application                      : mkvmerge v53.0.0 ('Fool's Gold') 64-bit
Writing library                          : libebml v1.4.1 + libmatroska v1.6.2

Video
ID                                       : 1
Format                                   : AVC
Format/Info                              : Advanced Video Codec
Format profile                           : [email protected]
Format settings                          : CABAC / 4 Ref Frames
Format settings, CABAC                   : Yes
Format settings, Reference frames        : 4 frames
Codec ID                                 : V_MPEG4/ISO/AVC
Duration                                 : 1 h 30 min
Bit rate                                 : 2 050 kb/s
Width                                    : 1 920 pixels
Height                                   : 1 024 pixels
Display aspect ratio                     : 1.85:1
Frame rate mode                          : Constant
Frame rate                               : 23.976 (24000/1001) FPS
Color space                              : YUV
Chroma subsampling                       : 4:2:0
Bit depth                                : 8 bits
Scan type                                : Progressive
Bits/(Pixel*Frame)                       : 0.043
Stream size                              : 1.30 GiB (78%)
Title                                    : 720P - Filmbol.org
Writing library                          : x264 core 148
Encoding settings                        : cabac=1 / ref=4 / deblock=1:-1:-1 / analyse=0x3:0x133 / me=umh / subme=9 / psy=1 / psy_rd=1.00:0.15 / mixed_ref=1 / me_range=24 / chroma_me=1 / trellis=2 / 8x8dct=1 / cqm=0 / deadzone=21,11 / fast_pskip=0 / chroma_qp_offset=-3 / threads=12 / lookahead_threads=1 / sliced_threads=0 / nr=0 / decimate=1 / interlaced=0 / bluray_compat=0 / constrained_intra=0 / bframes=3 / b_pyramid=2 / b_adapt=2 / b_bias=0 / direct=3 / weightb=1 / open_gop=0 / weightp=2 / keyint=250 / keyint_min=23 / scenecut=40 / intra_refresh=0 / rc_lookahead=60 / rc=2pass / mbtree=1 / bitrate=2050 / ratetol=1.0 / qcomp=0.60 / qpmin=0 / qpmax=69 / qpstep=4 / cplxblur=20.0 / qblur=0.5 / vbv_maxrate=31250 / vbv_bufsize=31250 / nal_hrd=none / filler=0 / ip_ratio=1.40 / aq=1:1.00
Default                                  : Yes
Forced                                   : No

Audio #1
ID                                       : 2
Format                                   : AAC LC
Format/Info                              : Advanced Audio Codec Low Complexity
Codec ID                                 : A_AAC-2
Duration                                 : 1 h 30 min
Bit rate                                 : 132 kb/s
Channel(s)                               : 2 channels
Channel layout                           : L R
Sampling rate                            : 48.0 kHz
Frame rate                               : 46.875 FPS (1024 SPF)
Compression mode                         : Lossy
Delay relative to video                  : -43 ms
Stream size                              : 86.9 MiB (5%)
Title                                    : Orjinal Dil - Filmbol.org
Language                                 : English
Default                                  : Yes
Forced                                   : No

Audio #2
ID                                       : 3
Format                                   : AC-3
Format/Info                              : Audio Coding 3
Commercial name                          : Dolby Digital
Codec ID                                 : A_AC3
Duration                                 : 1 h 30 min
Bit rate mode                            : Constant
Bit rate                                 : 448 kb/s
Channel(s)                               : 6 channels
Channel layout                           : L R C LFE Ls Rs
Sampling rate                            : 48.0 kHz
Frame rate                               : 31.250 FPS (1536 SPF)
Compression mode                         : Lossy
Delay relative to video                  : -43 ms
Stream size                              : 290 MiB (17%)
Title                                    : Türkçe - Filmbol.org
Language                                 : Turkish
Service kind                             : Complete Main
Default                                  : No
Forced                                   : No

Text
ID                                       : 4
Format                                   : UTF-8
Codec ID                                 : S_TEXT/UTF8
Codec ID/Info                            : UTF-8 Plain Text
Duration                                 : 1 h 27 min
Bit rate                                 : 39 b/s
Count of elements                        : 658
Stream size                              : 25.2 KiB (0%)
Title                                    : Türkçe - Filmbol.org
Language                                 : Turkish
Default                                  : Yes
Forced                                   : No

Film Detayları


 Buz Devri 2: Erime başlıyor

 Buz Devri 2: Erime başlıyor

 Buz Devri 2: Erime başlıyor


Film Fragmanı


Film İndir


Rar Şifresi: filmbol.org


Uptobox ile indir

1Fichier ile indir

1Fichier'den İndiremiyor musun? Tıklayın!












Şuan Online!
Rapor Et!
Şuan Online!
BroserBros Kurucu Admin
*******
Admin
26.03.2021 Yönetici Notu:

Kırık linkler kontrol edildi, kaldırıldı ve yenilendi. Tüm linkler tamamen çalışır durumda.
Şuan Offine!
Rapor Et!
Şuan Offine!
aydoğan Üye
*
Üye
  • Konular0
  • Mesajlar9
  • Rep puanı 0
Teşekkürler.
Şuan Online!
Rapor Et!
Şuan Online!
leosanchez Üye
*
Üye
  • Konular0
  • Mesajlar275
  • Rep puanı 0
Teşekkürler.
Şuan Offine!
Rapor Et!
Şuan Offine!
mutang Üye
*
Üye
  • Konular0
  • Mesajlar11
  • Rep puanı 0
Teşekkürler.
Şuan Offine!
Rapor Et!
Şuan Offine!
tobe2112 Üye
*
Üye
  • Konular0
  • Mesajlar4
  • Rep puanı 0
Teşekkürler.
Şuan Offine!
Rapor Et!
Şuan Offine!
myzrail Üye
*
Üye
  • Konular0
  • Mesajlar387
  • Rep puanı 0
eline saglık
Şuan Offine!
Rapor Et!
Şuan Offine!
cavitkctp Üye
*
Üye
  • Konular0
  • Mesajlar5
  • Rep puanı 0
Teşekkürler.


Hızlı Menü: