⤤ Premium'a Yükselt
Filmbol Forum Film İndir BRRip XviD v Buz Devri 2: Erime başlıyor (Ice Age: The Meltdown) - 2006 - TR - BRRip XviD | tt0438097

Filmbol TV kullanıma açıldı. Bu adresten giriş yapabilirsin: Giriş





Buz Devri 2: Erime başlıyor (Ice Age: The Meltdown) - 2006 - TR - BRRip XviD | tt0438097
BroserBros
Buz Devri 2: Erime başlıyor (Ice Age: The Meltdown) - 2006 - TR - BRRip XviD | tt0438097
8
819
  • Derecelendirme: 0/5 - 0 oy
  • 1
  • 2
  • 3
  • 4
  • 5
Konuyu Okuyanlar:2 Ziyaretçi
Şuan Online!
Filmin Yayınlanma Tarihi: 2006 
WWW
Rapor Et!
Şuan Online!
BroserBros Kurucu Admin
*******
Admin



 Buz Devri 2: Erime başlıyor



Serinin ikinci filminde, bizi yeni karakterler ve yine kusursuz sayılabilir senaryosu ile Buz Devri karşılıyor. Serinin ikinci filmi başlar başlamaz sizi konuya sürükleyebilir çünkü zaten herkesin hakim olduğu can alıcı bir noktadan giriyor, eriyen buzullar! Ayrıca filmde ilk filme göre animasyonların daha da geliştiğini göreceksiniz. Kahramanlarımız bu filmde eriyen buzullardan kaçmak zorundadır ve bu kaçışta ekibe yeni yüzlerde katılacaktır.

Buz Devri 2: Erime başlıyor (2006) (Ice Age: The Meltdown) | tt0438097 Filmi Imdb'den 260,000 kişi tarafından oylandı ve 6,8 puan aldı. Bu film için editör puanı %74 olarak belirlendi. İyi Seyirler!

Teknik Detaylar

Kod :
General
Unique ID                                : 167017089831175957721003719364136561308 (0x7DA6524ABEE02DA12ADF451A05EA6A9C)
Complete name                            : /home/BroserBros/Desktop/3/Buz.Devri.2.Erime.Başlıyor.BRRip.XViD.TR.Filmbol.avi
Format                                   : Matroska
Format version                           : Version 4
File size                                : 703 MiB
Duration                                 : 1 h 26 min
Overall bit rate                         : 1 131 kb/s
Movie name                               : Buz Devri 2: Erime Başlıyor - Ice Age: The Meltdown - 2006 | Filmbol.org
Encoded date                             : UTC 2021-03-26 14:14:06
Writing application                      : mkvmerge v53.0.0 ('Fool's Gold') 64-bit
Writing library                          : libebml v1.4.1 + libmatroska v1.6.2
FileExtension_Invalid                    : mkv mk3d mka mks

Video
ID                                       : 1
Format                                   : MPEG-4 Visual
Format profile                           : Advanced [email protected]
Format settings                          : BVOP1 / Custom Matrix
Format settings, BVOP                    : 1
Format settings, QPel                    : No
Format settings, GMC                     : No warppoints
Format settings, Matrix                  : Custom
Codec ID                                 : V_MS/VFW/FOURCC / XVID
Codec ID/Hint                            : XviD
Duration                                 : 1 h 26 min
Bit rate                                 : 1 001 kb/s
Width                                    : 608 pixels
Height                                   : 336 pixels
Display aspect ratio                     : 16:9
Frame rate mode                          : Constant
Frame rate                               : 25.000 FPS
Color space                              : YUV
Chroma subsampling                       : 4:2:0
Bit depth                                : 8 bits
Scan type                                : Progressive
Compression mode                         : Lossy
Bits/(Pixel*Frame)                       : 0.196
Stream size                              : 622 MiB (89%)
Title                                    : Buz Devri 2: Erime Başlıyor - Ice Age: The Meltdown - 2006 | Filmbol.org
Writing library                          : XviD 1.2.0.dev45 (UTC 2006-07-10)
Default                                  : Yes
Forced                                   : No

Audio
ID                                       : 2
Format                                   : MPEG Audio
Format version                           : Version 1
Format profile                           : Layer 3
Format settings                          : Joint stereo
Codec ID                                 : A_MPEG/L3
Codec ID/Hint                            : MP3
Duration                                 : 1 h 26 min
Bit rate mode                            : Constant
Bit rate                                 : 128 kb/s
Channel(s)                               : 2 channels
Sampling rate                            : 48.0 kHz
Frame rate                               : 41.667 FPS (1152 SPF)
Compression mode                         : Lossy
Stream size                              : 79.5 MiB (11%)
Title                                    : Buz Devri 2: Erime Başlıyor - Ice Age: The Meltdown - 2006 | Filmbol.org
Writing library                          : LAME3.97b
Encoding settings                        : -m j -V 4 -q 2 -lowpass 17 -b 128
Default                                  : Yes
Forced                                   : No

Film Detayları


 Buz Devri 2: Erime başlıyor

 Buz Devri 2: Erime başlıyor

 Buz Devri 2: Erime başlıyor


Film Fragmanı


Film İndir


Rar Şifresi: filmbol.org



Uptobox ile indir

1Fichier ile indir

1Fichier'den İndiremiyor musun? Tıklayın!












Şuan Offine!
Rapor Et!
Şuan Offine!
yasakral Uzman Üye
**
Uzman Üye
  • Konular0
  • Mesajlar4
  • Rep puanı 0
bebelere balon
Şuan Online!
Rapor Et!
Şuan Online!
BroserBros Kurucu Admin
*******
Admin
26.03.2021 Yönetici Notu:

Kırık linkler kontrol edildi, kaldırıldı ve yenilendi. Tüm linkler tamamen çalışır durumda.
Şuan Offine!
Rapor Et!
Şuan Offine!
PuNkDuNk Üye
*
Üye
  • Konular0
  • Mesajlar174
  • Rep puanı 0
teşekkürler ellerine sağlık
Şuan Offine!
Rapor Et!
Şuan Offine!
serdarr.isk Üye
*
Üye
  • Konular0
  • Mesajlar5
  • Rep puanı 0
Teşekkürler.
Şuan Offine!
Rapor Et!
Şuan Offine!
mutang Üye
*
Üye
  • Konular0
  • Mesajlar11
  • Rep puanı 0
Teşekkürler.
Şuan Offine!
Rapor Et!
Şuan Offine!
kemallgulhan Üye
*
Üye
  • Konular0
  • Mesajlar13
  • Rep puanı 0
Teşekkürler.
Şuan Online!
Rapor Et!
Şuan Online!
HASANSERBEST Üye
*
Üye
  • Konular0
  • Mesajlar30
  • Rep puanı 0
Teşekkürler.
Şuan Online!
Rapor Et!
Şuan Online!
Berra79 Üye
*
Üye
  • Konular0
  • Mesajlar10
  • Rep puanı 0
Teşekkürler.


Hızlı Menü: