⤤ Premium'a Yükselt
Filmbol Forum Film İndir 1080P v Sindirella (Cinderella) - 2015 - TR+ORG - 1080P | tt1661199

Filmbol TV kullanıma açıldı. Bu adresten giriş yapabilirsin: Giriş





Sindirella (Cinderella) - 2015 - TR+ORG - 1080P | tt1661199
BroserBros
Sindirella (Cinderella) - 2015 - TR+ORG - 1080P | tt1661199
5
847
  • Derecelendirme: 0/5 - 0 oy
  • 1
  • 2
  • 3
  • 4
  • 5
Konuyu Okuyanlar:2 Ziyaretçi
Şuan Online!
Filmin Yayınlanma Tarihi: 2015 
WWW
Rapor Et!
Şuan Online!
BroserBros Kurucu Admin
*******
Admin



 Sindirella



Sindirella, üvey annesi ve kız kardeşi tarafından dışlanan genç bir kızın bir yabancı ile karşılaştıktan sonra değişen yaşamının hikayesini anlatıyor. Ella’nın tüccar babası, annesinin trajik ölümü üzerine başka bir kadınla evlenir. Çok sevdiği babasına destek olmak için Ella yeni üvey annesi Tremaine’i ve üvey kız kardeşleri Anastasia ve Drizella’yı kabul eder. Fakat Ella’nın babası da aniden ölünce, genç kız bu zalim üvey anne ve kız kardeş ile baş başa kalacaktır. Kısa zaman içinde kendi evinde bu üç kadının hizmetçisi durumuna düşer. Umutsuzluğa kapışan genç kadının tek kurtuluşu, kentte düzenlenen ve tüm genç kızların katılacağı o balodur…
Klasik Cinderella hikayesi bu modern uyarlamasında Cinderallayı Lily James oynarken, kadroda kendisine Cate Blanchett (Tremaine), Helena Bonham Carter (Koruyucu Peri), ve Richard Madden (Prens) eşlik ediyor. Ölümcül Oyun, Jack Ryan: Gölge Ajan, Thor gibi filmleriyle hatırladığımız Kenneth Branagh’ın yönetmen koltuğunda oturduğu filmin senaryosunu ise Aline Brosh McKenna ve Chris Weitz kaleme alıyor. Görüntü yönetmenliğini Haris Zambarloukos’un üstlendiği filmin müzikleri ise Cesur, Maymunlar Cehennemi: Başlangıç, Thor, Macera Adası, Eragon, Ölüm Tohumları gibi filmlerinde müziklerine imza atan Patrick Doyle’a ait.

Sindirella (2015) (Cinderella) | tt1661199 Filmi Imdb'den 170,000 kişi tarafından oylandı ve 6,9 puan aldı. Bu film için editör puanı %77 olarak belirlendi. İyi Seyirler!

Teknik Detaylar

Kod :
General
Unique ID                                : 224289692056395659625741950210701031543 (0xA8BC9F981E1B4EA0A84CA23A09E07877)
Complete name                            : /home/BroserBros/Desktop/4/Sindirella.2015.1080p.BluRay.x264.TR.ENG.Filmbol.mkv
Format                                   : Matroska
Format version                           : Version 4
File size                                : 2.11 GiB
Duration                                 : 1 h 45 min
Overall bit rate                         : 2 865 kb/s
Movie name                               : Sindirella - Cinderella - 2015 | Filmbol.org
Encoded date                             : UTC 2021-05-30 07:40:06
Writing application                      : mkvmerge v53.0.0 ('Fool's Gold') 64-bit
Writing library                          : libebml v1.4.1 + libmatroska v1.6.2

Video
ID                                       : 1
Format                                   : AVC
Format/Info                              : Advanced Video Codec
Format profile                           : [email protected]
Format settings                          : CABAC / 4 Ref Frames
Format settings, CABAC                   : Yes
Format settings, Reference frames        : 4 frames
Codec ID                                 : V_MPEG4/ISO/AVC
Duration                                 : 1 h 45 min
Bit rate                                 : 2 130 kb/s
Width                                    : 1 920 pixels
Height                                   : 808 pixels
Display aspect ratio                     : 2.40:1
Frame rate mode                          : Constant
Frame rate                               : 23.976 (24000/1001) FPS
Original frame rate                      : 23.976 (23976/1000) FPS
Color space                              : YUV
Chroma subsampling                       : 4:2:0
Bit depth                                : 8 bits
Scan type                                : Progressive
Bits/(Pixel*Frame)                       : 0.057
Stream size                              : 1.57 GiB (74%)
Title                                    : 1080P - Filmbol.org
Writing library                          : x264 core 123 r2189 35cf912
Encoding settings                        : cabac=1 / ref=4 / deblock=1:-1:-1 / analyse=0x3:0x133 / me=umh / subme=9 / psy=1 / psy_rd=1.00:0.15 / mixed_ref=1 / me_range=24 / chroma_me=1 / trellis=2 / 8x8dct=1 / cqm=0 / deadzone=21,11 / fast_pskip=0 / chroma_qp_offset=-3 / threads=48 / sliced_threads=0 / nr=0 / decimate=1 / interlaced=0 / bluray_compat=0 / constrained_intra=0 / bframes=3 / b_pyramid=2 / b_adapt=2 / b_bias=0 / direct=3 / weightb=1 / open_gop=0 / weightp=2 / keyint=250 / keyint_min=23 / scenecut=40 / intra_refresh=0 / rc_lookahead=60 / rc=2pass / mbtree=1 / bitrate=2130 / ratetol=1.0 / qcomp=0.60 / qpmin=0 / qpmax=69 / qpstep=4 / cplxblur=20.0 / qblur=0.5 / vbv_maxrate=31250 / vbv_bufsize=31250 / nal_hrd=none / ip_ratio=1.40 / aq=1:1.00
Default                                  : Yes
Forced                                   : No
Color range                              : Limited
Color primaries                          : BT.709
Matrix coefficients                      : BT.709

Audio #1
ID                                       : 2
Format                                   : AC-3
Format/Info                              : Audio Coding 3
Commercial name                          : Dolby Digital
Codec ID                                 : A_AC3
Duration                                 : 1 h 45 min
Bit rate mode                            : Constant
Bit rate                                 : 640 kb/s
Channel(s)                               : 6 channels
Channel layout                           : L R C LFE Ls Rs
Sampling rate                            : 48.0 kHz
Frame rate                               : 31.250 FPS (1536 SPF)
Compression mode                         : Lossy
Delay relative to video                  : -83 ms
Stream size                              : 482 MiB (22%)
Title                                    : Türkçe - Filmbol.org
Language                                 : Turkish
Service kind                             : Complete Main
Default                                  : Yes
Forced                                   : No

Audio #2
ID                                       : 3
Format                                   : AAC LC
Format/Info                              : Advanced Audio Codec Low Complexity
Codec ID                                 : A_AAC-2
Duration                                 : 1 h 45 min
Bit rate                                 : 93.6 kb/s
Channel(s)                               : 2 channels
Channel layout                           : L R
Sampling rate                            : 48.0 kHz
Frame rate                               : 46.875 FPS (1024 SPF)
Compression mode                         : Lossy
Delay relative to video                  : -83 ms
Stream size                              : 70.6 MiB (3%)
Title                                    : Orijinal Dil - Filmbol.org
Language                                 : English
Default                                  : No
Forced                                   : No

Text
ID                                       : 4
Format                                   : UTF-8
Codec ID                                 : S_TEXT/UTF8
Codec ID/Info                            : UTF-8 Plain Text
Duration                                 : 1 h 38 min
Bit rate                                 : 56 b/s
Count of elements                        : 1028
Stream size                              : 41.0 KiB (0%)
Title                                    : Türkçe - Filmbol.org
Language                                 : Turkish
Default                                  : No
Forced                                   : No

Film Detayları


 Sindirella

 Sindirella

 Sindirella


Film Fragmanı


Film İndir


Rar Şifresi: filmbol.org


Uptobox ile indir

1Fichier ile indir

1Fichier'den İndiremiyor musun? Tıklayın!












Şuan Offine!
Rapor Et!
Şuan Offine!
Dralix Eski Premium Üye
***
Eski PR Üye
  • Konular0
  • Mesajlar25
  • Rep puanı 0
Teşekkürler
Şuan Offine!
Rapor Et!
Şuan Offine!
gv gfr Üye
*
Üye
  • Konular0
  • Mesajlar2
  • Rep puanı 0
merhaba
Şuan Online!
Rapor Et!
Şuan Online!
BroserBros Kurucu Admin
*******
Admin
31.05.2021 Yönetici Notu:

Kırık linkler kontrol edildi, kaldırıldı ve yenilendi. Tüm linkler tamamen çalışır durumda.
Şuan Offine!
Rapor Et!
Şuan Offine!
sheikhazim Üye
*
Üye
  • Konular0
  • Mesajlar129
  • Rep puanı 0
Teşekkürler.
Şuan Offine!
Rapor Et!
Şuan Offine!
fgultekin Üye
*
Üye
  • Konular0
  • Mesajlar81
  • Rep puanı 0
Teşekkürler.


Hızlı Menü: