⤤ Premium'a Yükselt

Merhaba, Ziyaretçi. Mega linklerinin bir kısmı deaktif halde ve yenileme çalışmalarına başladık. Bu süre içinde ikinci duyuruya kadar mega linklerini raporlamayın!! x

Filmbol Forum Film İndir BRRip XviD v Sindirella (Cinderella) - 2015 - TR - BRRip XviD | tt1661199

Filmbol TV kullanıma açıldı. Bu adresten giriş yapabilirsin: Giriş





Sindirella (Cinderella) - 2015 - TR - BRRip XviD | tt1661199
BroserBros
Sindirella (Cinderella) - 2015 - TR - BRRip XviD | tt1661199
3
605
  • Derecelendirme: 0/5 - 0 oy
  • 1
  • 2
  • 3
  • 4
  • 5
Konuyu Okuyanlar:2 Ziyaretçi
Şuan Online!
Filmin Yayınlanma Tarihi: 2015 
WWW
Rapor Et!
Şuan Online!
BroserBros Kurucu Admin
*******
Admin



 Sindirella



Sindirella, üvey annesi ve kız kardeşi tarafından dışlanan genç bir kızın bir yabancı ile karşılaştıktan sonra değişen yaşamının hikayesini anlatıyor. Ella’nın tüccar babası, annesinin trajik ölümü üzerine başka bir kadınla evlenir. Çok sevdiği babasına destek olmak için Ella yeni üvey annesi Tremaine’i ve üvey kız kardeşleri Anastasia ve Drizella’yı kabul eder. Fakat Ella’nın babası da aniden ölünce, genç kız bu zalim üvey anne ve kız kardeş ile baş başa kalacaktır. Kısa zaman içinde kendi evinde bu üç kadının hizmetçisi durumuna düşer. Umutsuzluğa kapışan genç kadının tek kurtuluşu, kentte düzenlenen ve tüm genç kızların katılacağı o balodur…
Klasik Cinderella hikayesi bu modern uyarlamasında Cinderallayı Lily James oynarken, kadroda kendisine Cate Blanchett (Tremaine), Helena Bonham Carter (Koruyucu Peri), ve Richard Madden (Prens) eşlik ediyor. Ölümcül Oyun, Jack Ryan: Gölge Ajan, Thor gibi filmleriyle hatırladığımız Kenneth Branagh’ın yönetmen koltuğunda oturduğu filmin senaryosunu ise Aline Brosh McKenna ve Chris Weitz kaleme alıyor. Görüntü yönetmenliğini Haris Zambarloukos’un üstlendiği filmin müzikleri ise Cesur, Maymunlar Cehennemi: Başlangıç, Thor, Macera Adası, Eragon, Ölüm Tohumları gibi filmlerinde müziklerine imza atan Patrick Doyle’a ait.

Sindirella (2015) (Cinderella) | tt1661199 Filmi Imdb'den 170,000 kişi tarafından oylandı ve 6,9 puan aldı. Bu film için editör puanı %77 olarak belirlendi. İyi Seyirler!

Teknik Detaylar

Kod :
General
Unique ID                                : 256539607672260381720086668366028667316 (0xC0FFBB322255BD9FB1AFFEE2D3C6F9B4)
Complete name                            : /home/BroserBros/Desktop/4/Sindirella.2015.BRRip.XviD.TR.Filmbol.avi
Format                                   : Matroska
Format version                           : Version 4
File size                                : 696 MiB
Duration                                 : 1 h 45 min
Overall bit rate                         : 923 kb/s
Movie name                               : Sindirella - Cinderella - 2015 | Filmbol.org
Encoded date                             : UTC 2021-05-30 07:53:44
Writing application                      : mkvmerge v53.0.0 ('Fool's Gold') 64-bit
Writing library                          : libebml v1.4.1 + libmatroska v1.6.2
FileExtension_Invalid                    : mkv mk3d mka mks

Video
ID                                       : 1
Format                                   : MPEG-4 Visual
Format profile                           : Advanced [email protected]
Format settings                          : BVOP2
Format settings, BVOP                    : 2
Format settings, QPel                    : No
Format settings, GMC                     : No warppoints
Format settings, Matrix                  : Default (H.263)
Codec ID                                 : V_MS/VFW/FOURCC / FMP4
Duration                                 : 1 h 45 min
Bit rate                                 : 794 kb/s
Width                                    : 656 pixels
Height                                   : 272 pixels
Display aspect ratio                     : 2.40:1
Frame rate mode                          : Constant
Frame rate                               : 23.976 (24000/1001) FPS
Color space                              : YUV
Chroma subsampling                       : 4:2:0
Bit depth                                : 8 bits
Scan type                                : Progressive
Compression mode                         : Lossy
Bits/(Pixel*Frame)                       : 0.185
Stream size                              : 598 MiB (86%)
Title                                    : Sindirella - Cinderella - 2015 | Filmbol.org
Writing library                          : XviD 67
Default                                  : Yes
Forced                                   : No

Audio
ID                                       : 2
Format                                   : MPEG Audio
Format version                           : Version 1
Format profile                           : Layer 3
Format settings                          : Joint stereo / MS Stereo
Codec ID                                 : A_MPEG/L3
Codec ID/Hint                            : MP3
Duration                                 : 1 h 45 min
Bit rate mode                            : Constant
Bit rate                                 : 128 kb/s
Channel(s)                               : 2 channels
Sampling rate                            : 48.0 kHz
Frame rate                               : 41.667 FPS (1152 SPF)
Compression mode                         : Lossy
Stream size                              : 96.5 MiB (14%)
Title                                    : Sindirella - Cinderella - 2015 | Filmbol.org
Default                                  : Yes
Forced                                   : No

Film Detayları


 Sindirella

 Sindirella

 Sindirella


Film Fragmanı


Film İndir


Rar Şifresi: filmbol.org



Uptobox ile indir

1Fichier ile indir

1Fichier'den İndiremiyor musun? Tıklayın!












Şuan Online!
Rapor Et!
Şuan Online!
BroserBros Kurucu Admin
*******
Admin
31.05.2021 Yönetici Notu:

Kırık linkler kontrol edildi, kaldırıldı ve yenilendi. Tüm linkler tamamen çalışır durumda.
Şuan Offine!
Rapor Et!
Şuan Offine!
Muha Uzman Üye
**
Uzman Üye
  • Konular0
  • Mesajlar27
  • Rep puanı 0
Film guzel
Şuan Offine!
Rapor Et!
Şuan Offine!
yasakral12 Üye
*
Üye
  • Konular0
  • Mesajlar7
  • Rep puanı 0
hadi bakalım


Hızlı Menü: