⤤ Premium'a Yükselt
Filmbol Forum Film İndir 1080P v Utanç (Shame) - 2011 - TR+ORG - 1080P | tt1723811

Filmbol TV kullanıma açıldı. Bu adresten giriş yapabilirsin: Giriş





Utanç (Shame) - 2011 - TR+ORG - 1080P | tt1723811
BroserBros
Utanç (Shame) - 2011 - TR+ORG - 1080P | tt1723811
15
1072
  • Derecelendirme: 0/5 - 0 oy
  • 1
  • 2
  • 3
  • 4
  • 5
Konuyu Okuyanlar:3 Ziyaretçi
Şuan Online!
Filmin Yayınlanma Tarihi: 2019 
WWW
Rapor Et!
Şuan Online!
BroserBros Kurucu Admin
*******
Admin



 Utanç



Brandon 30’lu yaşlarında New York’ta yaşayan, kelimenin gerçek anlamıyla seks bağımlısı bir adamdır. Fakat asi kız kardeşi onun yanına taşınınca Brandon’ın hayatı da beklenmedik biçimde değişecektir. Zira kız kardeşi Sissy (Carey Mulligan) ikisinin de geçmişinden gelen acı dolu hatıraları da beraberinde getirecektir…
Toronto Film Festivali’nde görücüye çıkan Utanç/Shame, cinselliğin merkezde olduğu bir New York draması olarak niteleniyor. Ses getiren Açlık (Hunger) filmiyle tanıdığımız ve son dönemlerin gözde yapımlarında yer alan Michael Fassbender’ın başrolü canlandırdığı yapım İngiliz sinemacı Steve McQueen’in hem senaryoyu hem de yönetmenliği üstlendiği henüz ikinci film…
Amerika’da 2 Aralık’ta gösterime girecek filmin yurt dışındaki eleştirileri şimdiye kadar oldukça olumlu ve yüksek seyrediyor. Film 2011 Filmekimi kapsamında ülkemiz seyircileriyle de buluşmuştu.

Utanç (2011) (Shame) | tt1723811 Filmi Imdb'den 190,000 kişi tarafından oylandı ve 7,2 puan aldı. Bu film için editör puanı %82 olarak belirlendi. İyi Seyirler!

Teknik Detaylar

Kod :
General
Unique ID                                : 37010525851546476553189891018786620257 (0x1BD7F7CED0B7E174307F394083544361)
Complete name                            : /home/BroserBros/Desktop/6/Utanç.2011.1080p.BluRay.x264.TR.ENG.Filmbol.mkv
Format                                   : Matroska
Format version                           : Version 4
File size                                : 1.39 GiB
Duration                                 : 1 h 41 min
Overall bit rate                         : 1 971 kb/s
Movie name                               : Utanç - Shame - 2011 | Filmbol.org
Encoded date                             : UTC 2021-05-30 11:52:27
Writing application                      : mkvmerge v53.0.0 ('Fool's Gold') 64-bit
Writing library                          : libebml v1.4.1 + libmatroska v1.6.2

Video
ID                                       : 1
Format                                   : AVC
Format/Info                              : Advanced Video Codec
Format profile                           : [email protected]
Format settings                          : CABAC / 5 Ref Frames
Format settings, CABAC                   : Yes
Format settings, Reference frames        : 5 frames
Codec ID                                 : V_MPEG4/ISO/AVC
Duration                                 : 1 h 41 min
Bit rate                                 : 1 778 kb/s
Width                                    : 1 920 pixels
Height                                   : 816 pixels
Display aspect ratio                     : 2.35:1
Frame rate mode                          : Constant
Frame rate                               : 23.976 (24000/1001) FPS
Color space                              : YUV
Chroma subsampling                       : 4:2:0
Bit depth                                : 8 bits
Scan type                                : Progressive
Bits/(Pixel*Frame)                       : 0.047
Stream size                              : 1.26 GiB (90%)
Title                                    : 1080P - Filmbol.org
Writing library                          : x264 core 120 r2164 da19765
Encoding settings                        : cabac=1 / ref=5 / deblock=1:-2:-1 / analyse=0x3:0x113 / me=umh / subme=8 / psy=1 / psy_rd=1.00:0.00 / mixed_ref=1 / me_range=16 / chroma_me=1 / trellis=1 / 8x8dct=1 / cqm=0 / deadzone=21,11 / fast_pskip=1 / chroma_qp_offset=-2 / threads=12 / sliced_threads=0 / nr=0 / decimate=1 / interlaced=0 / bluray_compat=0 / constrained_intra=0 / bframes=3 / b_pyramid=2 / b_adapt=2 / b_bias=0 / direct=3 / weightb=1 / open_gop=0 / weightp=2 / keyint=240 / keyint_min=23 / scenecut=40 / intra_refresh=0 / rc_lookahead=50 / rc=2pass / mbtree=1 / bitrate=1778 / ratetol=1.0 / qcomp=0.60 / qpmin=10 / qpmax=51 / qpstep=4 / cplxblur=20.0 / qblur=0.5 / ip_ratio=1.40 / aq=1:1.00
Default                                  : Yes
Forced                                   : No

Audio #1
ID                                       : 2
Format                                   : MPEG Audio
Format version                           : Version 1
Format profile                           : Layer 3
Codec ID                                 : A_MPEG/L3
Codec ID/Hint                            : MP3
Duration                                 : 1 h 40 min
Bit rate mode                            : Constant
Bit rate                                 : 128 kb/s
Channel(s)                               : 2 channels
Sampling rate                            : 48.0 kHz
Frame rate                               : 41.667 FPS (1152 SPF)
Compression mode                         : Lossy
Delay relative to video                  : 25 s 8 ms
Stream size                              : 92.2 MiB (6%)
Title                                    : Türkçe - Filmbol.org
Writing library                          : LAME3.96
Language                                 : Turkish
Default                                  : Yes
Forced                                   : No

Audio #2
ID                                       : 3
Format                                   : AAC LC SBR
Format/Info                              : Advanced Audio Codec Low Complexity with Spectral Band Replication
Commercial name                          : HE-AAC
Format settings                          : Explicit
Codec ID                                 : A_AAC-2
Duration                                 : 1 h 41 min
Bit rate                                 : 64.0 kb/s
Channel(s)                               : 2 channels
Channel layout                           : L R
Sampling rate                            : 48.0 kHz
Frame rate                               : 23.438 FPS (2048 SPF)
Compression mode                         : Lossy
Stream size                              : 46.3 MiB (3%)
Title                                    : Orijinal Dil - Filmbol.org
Language                                 : English
Default                                  : No
Forced                                   : No

Text
ID                                       : 4
Format                                   : UTF-8
Codec ID                                 : S_TEXT/UTF8
Codec ID/Info                            : UTF-8 Plain Text
Duration                                 : 1 h 35 min
Bit rate                                 : 33 b/s
Count of elements                        : 751
Stream size                              : 23.5 KiB (0%)
Title                                    : Türkçe - Filmbol.org
Language                                 : Turkish
Default                                  : No
Forced                                   : No

Film Detayları


 Utanç

 Utanç

 Utanç


Film Fragmanı


Film İndir


Rar Şifresi: filmbol.org


Uptobox ile indir

1Fichier ile indir

1Fichier'den İndiremiyor musun? Tıklayın!












Şuan Offine!
Rapor Et!
Şuan Offine!
tarik55 Uzman Üye
**
Uzman Üye
  • Konular0
  • Mesajlar16
  • Rep puanı 0
Tşkler
Şuan Offine!
Rapor Et!
Şuan Offine!
emre_3434 Süper Üye
***
Super Üye
  • Konular5
  • Mesajlar47
  • Rep puanı 5
Paylaşım için teşekkürler, emeğinize sağlık.
Şuan Offine!
Rapor Et!
Şuan Offine!
ahleten Uzman Üye
**
Uzman Üye
  • Konular0
  • Mesajlar180
  • Rep puanı 0
teşekkürler.........
Şuan Offine!
Rapor Et!
Şuan Offine!
davutk Süper Üye
***
Super Üye
  • Konular0
  • Mesajlar53
  • Rep puanı 0
Teşekkürler
Şuan Online!
Rapor Et!
Şuan Online!
BroserBros Kurucu Admin
*******
Admin
31.05.2021 Yönetici Notu:

Kırık linkler kontrol edildi, kaldırıldı ve yenilendi. Tüm linkler tamamen çalışır durumda.
Şuan Offine!
Rapor Et!
Şuan Offine!
Gramermovie Üye
*
Üye
  • Konular0
  • Mesajlar66
  • Rep puanı 0
Paylaşım için teşekkürler
Şuan Offine!
Rapor Et!
Şuan Offine!
angelord Üye
*
Üye
  • Konular1
  • Mesajlar137
  • Rep puanı 0
teşekkürler
Şuan Offine!
Rapor Et!
Şuan Offine!
ismak3000 Üye
*
Üye
  • Konular0
  • Mesajlar1
  • Rep puanı 0
Teşekkürler.
Şuan Offine!
Rapor Et!
Şuan Offine!
tania Üye
*
Üye
  • Konular0
  • Mesajlar37
  • Rep puanı 0
harikasınız imdbsi cok iyi film izleyip görecegiz


Hızlı Menü: