⤤ Premium'a Yükselt

Merhaba, Ziyaretçi. Mega linklerinin bir kısmı deaktif halde ve yenileme çalışmalarına başladık. Bu süre içinde ikinci duyuruya kadar mega linklerini raporlamayın!! x

Filmbol Forum Film İndir BRRip XviD v Utanç (Shame) - 2011 - TR - BRRip XviD | tt1723811

Filmbol TV kullanıma açıldı. Bu adresten giriş yapabilirsin: Giriş





Utanç (Shame) - 2011 - TR - BRRip XviD | tt1723811
BroserBros
Utanç (Shame) - 2011 - TR - BRRip XviD | tt1723811
4
701
  • Derecelendirme: 0/5 - 0 oy
  • 1
  • 2
  • 3
  • 4
  • 5
Konuyu Okuyanlar:2 Ziyaretçi
Şuan Online!
Filmin Yayınlanma Tarihi: 2019 
WWW
Rapor Et!
Şuan Online!
BroserBros Kurucu Admin
*******
Admin



 Utanç



Brandon 30’lu yaşlarında New York’ta yaşayan, kelimenin gerçek anlamıyla seks bağımlısı bir adamdır. Fakat asi kız kardeşi onun yanına taşınınca Brandon’ın hayatı da beklenmedik biçimde değişecektir. Zira kız kardeşi Sissy (Carey Mulligan) ikisinin de geçmişinden gelen acı dolu hatıraları da beraberinde getirecektir…
Toronto Film Festivali’nde görücüye çıkan Utanç/Shame, cinselliğin merkezde olduğu bir New York draması olarak niteleniyor. Ses getiren Açlık (Hunger) filmiyle tanıdığımız ve son dönemlerin gözde yapımlarında yer alan Michael Fassbender’ın başrolü canlandırdığı yapım İngiliz sinemacı Steve McQueen’in hem senaryoyu hem de yönetmenliği üstlendiği henüz ikinci film…
Amerika’da 2 Aralık’ta gösterime girecek filmin yurt dışındaki eleştirileri şimdiye kadar oldukça olumlu ve yüksek seyrediyor. Film 2011 Filmekimi kapsamında ülkemiz seyircileriyle de buluşmuştu.

Utanç (2011) (Shame) | tt1723811 Filmi Imdb'den 190,000 kişi tarafından oylandı ve 7,2 puan aldı. Bu film için editör puanı %82 olarak belirlendi. İyi Seyirler!

Teknik Detaylar

Kod :
General
Unique ID                                : 17817502830782078750472186832134522136 (0xD6786B697039FDF5C7127B7C6B6C518)
Complete name                            : /home/BroserBros/Desktop/6/Utanç.2011.BRRip.XviD.TR.Filmbol.avi
Format                                   : Matroska
Format version                           : Version 4
File size                                : 685 MiB
Duration                                 : 1 h 41 min
Overall bit rate                         : 947 kb/s
Movie name                               : Utanç - Shame - 2011 | Filmbol.org
Encoded date                             : UTC 2021-05-30 12:00:36
Writing application                      : mkvmerge v53.0.0 ('Fool's Gold') 64-bit
Writing library                          : libebml v1.4.1 + libmatroska v1.6.2
FileExtension_Invalid                    : mkv mk3d mka mks

Video
ID                                       : 1
Format                                   : MPEG-4 Visual
Format profile                           : Advanced [email protected]
Format settings                          : BVOP3
Format settings, BVOP                    : 3
Format settings, QPel                    : No
Format settings, GMC                     : No warppoints
Format settings, Matrix                  : Default (MPEG)
Codec ID                                 : V_MS/VFW/FOURCC / XVID
Codec ID/Hint                            : XviD
Duration                                 : 1 h 41 min
Bit rate                                 : 818 kb/s
Width                                    : 656 pixels
Height                                   : 272 pixels
Display aspect ratio                     : 2.40:1
Frame rate mode                          : Constant
Frame rate                               : 23.976 (24000/1001) FPS
Color space                              : YUV
Chroma subsampling                       : 4:2:0
Bit depth                                : 8 bits
Scan type                                : Progressive
Compression mode                         : Lossy
Bits/(Pixel*Frame)                       : 0.191
Stream size                              : 592 MiB (86%)
Title                                    : Utanç - Shame - 2011 | Filmbol.org
Writing library                          : XviD 1.2.1 (UTC 2008-12-04)
Default                                  : Yes
Forced                                   : No

Audio
ID                                       : 2
Format                                   : MPEG Audio
Format version                           : Version 1
Format profile                           : Layer 3
Codec ID                                 : A_MPEG/L3
Codec ID/Hint                            : MP3
Duration                                 : 1 h 40 min
Bit rate mode                            : Constant
Bit rate                                 : 128 kb/s
Channel(s)                               : 2 channels
Sampling rate                            : 48.0 kHz
Frame rate                               : 41.667 FPS (1152 SPF)
Compression mode                         : Lossy
Delay relative to video                  : 25 s 8 ms
Stream size                              : 92.2 MiB (13%)
Title                                    : Utanç - Shame - 2011 | Filmbol.org
Writing library                          : LAME3.96
Language                                 : Turkish
Default                                  : Yes
Forced                                   : No

Film Detayları


 Utanç

 Utanç

 Utanç


Film Fragmanı


Film İndir


Rar Şifresi: filmbol.org



Uptobox ile indir

1Fichier ile indir

1Fichier'den İndiremiyor musun? Tıklayın!












Şuan Offine!
Rapor Et!
Şuan Offine!
filmbolcu Süper Üye
***
Super Üye
  • Konular7
  • Mesajlar122
  • Rep puanı 2
İstek bölümünde gördüm; bakalım nasıl bir filmmiş. Paylaşım için teşekkürler.
Şuan Offine!
Rapor Et!
Şuan Offine!
sectechno Premium Üye
****
  • Konular19
  • Mesajlar205
  • Rep puanı 47
Teşekkürler.İyi çalışmalar.
Şuan Online!
Rapor Et!
Şuan Online!
BroserBros Kurucu Admin
*******
Admin
31.05.2021 Yönetici Notu:

Kırık linkler kontrol edildi, kaldırıldı ve yenilendi. Tüm linkler tamamen çalışır durumda.
Şuan Offine!
Rapor Et!
Şuan Offine!
Muha Uzman Üye
**
Uzman Üye
  • Konular0
  • Mesajlar27
  • Rep puanı 0
Guzel film


Hızlı Menü: