⤤ Premium'a Yükselt
Filmbol Forum Film İndir 720P v Yeti Efsanesi (Abominable) - 2019 - TR+ORG - 720P | tt6324278

Filmbol TV kullanıma açıldı. Bu adresten giriş yapabilirsin: Giriş





Yeti Efsanesi (Abominable) - 2019 - TR+ORG - 720P | tt6324278
BroserBros
Yeti Efsanesi (Abominable) - 2019 - TR+ORG - 720P | tt6324278
7
933
  • Derecelendirme: 0/5 - 0 oy
  • 1
  • 2
  • 3
  • 4
  • 5
Konuyu Okuyanlar:1 Ziyaretçi
Şuan Online!
Filmin Yayınlanma Tarihi: 2019 
WWW
Rapor Et!
Şuan Online!
BroserBros Kurucu Admin
*******
Admin



 Yeti Efsanesi



Yeti Efsanesi, çatısında bulduğu efsanevi yaratık Yeti’yi evine geri götürmek için zorlu bir maceraya atılan Yi ve arkadaşlarının hikayesini konu ediyor. Yi, dünyayı gezme hayali ile yaşayan genç bir kızdır. Genç kızın hayatı, Şangay’daki evlerinin çatısında bir Yeti ile karşılaşmasıyla bambaşka bir hal alır. Evin çatısında yaşayan Yeti ile iletişim kurmaya çalışan Yi, onu evine, ailesinin yanına dönmesine yardımcı olmaya çalışır. Sihirli yaratığın Everest’te yaşadığını anlayan Yi, yakın arkadaşları Jin ve Peng ile birlikte ona ‘Everest’ adını verirler. Yi ve arkadaşları, Everest’i, dünyanın en yüksek noktasında ailesi ile yeniden bir araya getirebilmek için zorlu bir yolculuğa çıkmak için tüm hazırlıklarını yapar. Bu sırada ekip, zengin biri olan Burnish ile zoolog Dr. Zara’nın, Yeti’nin peşinde olduklarını, her yerde onu aradıklarını öğrenir. Yi ve arkadaşları, peşlerine düşen Burnish ve Dr. Zara’dan kurtulup, sevimli dostları Everest’in evine dönmesini sağlayabilecekler midir?

Yeti Efsanesi (2019) (Abominable) | tt6324278 Filmi Imdb'den 32,000 kişi tarafından oylandı ve 7,0 puan aldı. Bu film için editör puanı %83 olarak belirlendi. İyi Seyirler!

Teknik Detaylar

Kod :
General
Unique ID                                : 178503111309140635686138292594733044929 (0x864A72DF8DB43B9A744B6D6B70F954C1)
Complete name                            : /home/BroserBros/Desktop/1/Yeti.Efsanesi.2019.720p.BluRay.x264.TR.ENG.Filmbol.mkv
Format                                   : Matroska
Format version                           : Version 4
File size                                : 1.14 GiB
Duration                                 : 1 h 37 min
Overall bit rate                         : 1 685 kb/s
Movie name                               : Yeti Efsanesi - Abominable - 2019 | Filmbol.org
Encoded date                             : UTC 2021-05-28 12:10:13
Writing application                      : mkvmerge v53.0.0 ('Fool's Gold') 64-bit
Writing library                          : libebml v1.4.1 + libmatroska v1.6.2

Video
ID                                       : 1
Format                                   : AVC
Format/Info                              : Advanced Video Codec
Format profile                           : [email protected]
Format settings                          : CABAC / 4 Ref Frames
Format settings, CABAC                   : Yes
Format settings, Reference frames        : 4 frames
Codec ID                                 : V_MPEG4/ISO/AVC
Duration                                 : 1 h 37 min
Bit rate                                 : 1 100 kb/s
Width                                    : 1 280 pixels
Height                                   : 694 pixels
Display aspect ratio                     : 1.85:1
Frame rate mode                          : Constant
Frame rate                               : 23.976 (24000/1001) FPS
Color space                              : YUV
Chroma subsampling                       : 4:2:0
Bit depth                                : 8 bits
Scan type                                : Progressive
Bits/(Pixel*Frame)                       : 0.052
Stream size                              : 765 MiB (65%)
Title                                    : Yeti Efsanesi - Abominable - 2019 | Filmbol.org
Writing library                          : x264 core 158
Encoding settings                        : cabac=1 / ref=4 / deblock=1:-1:-1 / analyse=0x3:0x133 / me=umh / subme=9 / psy=1 / psy_rd=1.00:0.15 / mixed_ref=1 / me_range=24 / chroma_me=1 / trellis=2 / 8x8dct=1 / cqm=0 / deadzone=21,11 / fast_pskip=0 / chroma_qp_offset=-3 / threads=18 / lookahead_threads=1 / sliced_threads=0 / nr=0 / decimate=1 / interlaced=0 / bluray_compat=0 / constrained_intra=0 / bframes=3 / b_pyramid=2 / b_adapt=2 / b_bias=0 / direct=3 / weightb=1 / open_gop=0 / weightp=2 / keyint=250 / keyint_min=23 / scenecut=40 / intra_refresh=0 / rc_lookahead=60 / rc=2pass / mbtree=1 / bitrate=1100 / ratetol=1.0 / qcomp=0.60 / qpmin=0 / qpmax=69 / qpstep=4 / cplxblur=20.0 / qblur=0.5 / vbv_maxrate=31250 / vbv_bufsize=31250 / nal_hrd=none / filler=0 / ip_ratio=1.40 / aq=1:1.00
Default                                  : Yes
Forced                                   : No

Audio #1
ID                                       : 2
Format                                   : AC-3
Format/Info                              : Audio Coding 3
Commercial name                          : Dolby Digital
Codec ID                                 : A_AC3
Duration                                 : 1 h 37 min
Bit rate mode                            : Constant
Bit rate                                 : 384 kb/s
Channel(s)                               : 6 channels
Channel layout                           : L R C LFE Ls Rs
Sampling rate                            : 48.0 kHz
Frame rate                               : 31.250 FPS (1536 SPF)
Compression mode                         : Lossy
Stream size                              : 267 MiB (23%)
Title                                    : Yeti Efsanesi - Abominable - 2019 | Filmbol.org
Language                                 : Turkish
Service kind                             : Complete Main
Default                                  : Yes
Forced                                   : No

Audio #2
ID                                       : 3
Format                                   : AC-3
Format/Info                              : Audio Coding 3
Commercial name                          : Dolby Digital
Codec ID                                 : A_AC3
Duration                                 : 1 h 37 min
Bit rate mode                            : Constant
Bit rate                                 : 192 kb/s
Channel(s)                               : 2 channels
Channel layout                           : L R
Sampling rate                            : 48.0 kHz
Frame rate                               : 31.250 FPS (1536 SPF)
Compression mode                         : Lossy
Stream size                              : 134 MiB (11%)
Title                                    : Yeti Efsanesi - Abominable - 2019 | Filmbol.org
Language                                 : English
Service kind                             : Complete Main
Default                                  : No
Forced                                   : No

Text #1
ID                                       : 4
Format                                   : PGS
Muxing mode                              : zlib
Codec ID                                 : S_HDMV/PGS
Codec ID/Info                            : Picture based subtitle format used on BDs/HD-DVDs
Duration                                 : 1 h 35 min
Bit rate                                 : 23.5 kb/s
Count of elements                        : 1994
Stream size                              : 16.1 MiB (1%)
Title                                    : Yeti Efsanesi - Abominable - 2019 | Filmbol.org
Language                                 : Turkish
Default                                  : No
Forced                                   : No

Text #2
ID                                       : 5
Format                                   : UTF-8
Codec ID                                 : S_TEXT/UTF8
Codec ID/Info                            : UTF-8 Plain Text
Duration                                 : 1 h 25 min
Bit rate                                 : 42 b/s
Count of elements                        : 997
Stream size                              : 26.3 KiB (0%)
Title                                    : Yeti Efsanesi - Abominable - 2019 | Filmbol.org
Language                                 : Turkish
Default                                  : No
Forced                                   : No

Film Detayları


 Yeti Efsanesi

 Yeti Efsanesi

 Yeti Efsanesi


Film Fragmanı


Film İndir


Rar Şifresi: filmbol.org


Uptobox ile indir

1Fichier ile indir

1Fichier'den İndiremiyor musun? Tıklayın!












Şuan Offine!
Rapor Et!
Şuan Offine!
tenteci Uzman Üye
**
Uzman Üye
  • Konular0
  • Mesajlar19
  • Rep puanı 0
teşekkürler
Şuan Offine!
Rapor Et!
Şuan Offine!
Selocan Uzman Üye
**
Uzman Üye
  • Konular0
  • Mesajlar13
  • Rep puanı 0
teşekkürler.
Şuan Offine!
Rapor Et!
Şuan Offine!
thor Süper Üye
***
Super Üye
  • Konular0
  • Mesajlar34
  • Rep puanı 0
Eyvallah
Şuan Offine!
Rapor Et!
Şuan Offine!
berkemir Uzman Üye
**
Uzman Üye
  • Konular0
  • Mesajlar12
  • Rep puanı 0
teşekkürler
Şuan Online!
Rapor Et!
Şuan Online!
BroserBros Kurucu Admin
*******
Admin
29.05.2021 Yönetici Notu:

Kırık linkler kontrol edildi, kaldırıldı ve yenilendi. Tüm linkler tamamen çalışır durumda.
Şuan Offine!
Rapor Et!
Şuan Offine!
barakali Uzman Üye
**
Uzman Üye
  • Konular0
  • Mesajlar22
  • Rep puanı 0
emeğine sağlık
Şuan Offine!
Rapor Et!
Şuan Offine!
bay.patates Üye
*
Üye
  • Konular0
  • Mesajlar90
  • Rep puanı 0
iyi mukemmel


Hızlı Menü: