⤤ Premium'a Yükselt
Filmbol Forum Film İndir BRRip XviD v Yeti Efsanesi (Abominable) - 2019 - TR - BRRip XviD | tt6324278

Filmbol TV kullanıma açıldı. Bu adresten giriş yapabilirsin: Giriş





Yeti Efsanesi (Abominable) - 2019 - TR - BRRip XviD | tt6324278
BroserBros
Yeti Efsanesi (Abominable) - 2019 - TR - BRRip XviD | tt6324278
3
628
  • Derecelendirme: 0/5 - 0 oy
  • 1
  • 2
  • 3
  • 4
  • 5
Konuyu Okuyanlar:1 Ziyaretçi
Şuan Online!
Filmin Yayınlanma Tarihi: 2019 
WWW
Rapor Et!
Şuan Online!
BroserBros Kurucu Admin
*******
Admin



 Yeti Efsanesi



Yeti Efsanesi, çatısında bulduğu efsanevi yaratık Yeti’yi evine geri götürmek için zorlu bir maceraya atılan Yi ve arkadaşlarının hikayesini konu ediyor. Yi, dünyayı gezme hayali ile yaşayan genç bir kızdır. Genç kızın hayatı, Şangay’daki evlerinin çatısında bir Yeti ile karşılaşmasıyla bambaşka bir hal alır. Evin çatısında yaşayan Yeti ile iletişim kurmaya çalışan Yi, onu evine, ailesinin yanına dönmesine yardımcı olmaya çalışır. Sihirli yaratığın Everest’te yaşadığını anlayan Yi, yakın arkadaşları Jin ve Peng ile birlikte ona ‘Everest’ adını verirler. Yi ve arkadaşları, Everest’i, dünyanın en yüksek noktasında ailesi ile yeniden bir araya getirebilmek için zorlu bir yolculuğa çıkmak için tüm hazırlıklarını yapar. Bu sırada ekip, zengin biri olan Burnish ile zoolog Dr. Zara’nın, Yeti’nin peşinde olduklarını, her yerde onu aradıklarını öğrenir. Yi ve arkadaşları, peşlerine düşen Burnish ve Dr. Zara’dan kurtulup, sevimli dostları Everest’in evine dönmesini sağlayabilecekler midir?

Yeti Efsanesi (2019) (Abominable) | tt6324278 Filmi Imdb'den 32,000 kişi tarafından oylandı ve 7,0 puan aldı. Bu film için editör puanı %83 olarak belirlendi. İyi Seyirler!

Teknik Detaylar

Kod :
General
Unique ID                                : 50678023442900809366046232194591587192 (0x26203B772AEB63552CA3054FCC697B78)
Complete name                            : /home/BroserBros/Desktop/1/Yeti.Efsanesi.2019.BRRip.XviD.TR.Filmbol.avi
Format                                   : Matroska
Format version                           : Version 4
File size                                : 1.17 GiB
Duration                                 : 1 h 37 min
Overall bit rate                         : 1 727 kb/s
Movie name                               : Yeti Efsanesi - Abominable - 2019 | Filmbol.org
Encoded date                             : UTC 2021-05-28 12:12:41
Writing application                      : mkvmerge v53.0.0 ('Fool's Gold') 64-bit
Writing library                          : libebml v1.4.1 + libmatroska v1.6.2
FileExtension_Invalid                    : mkv mk3d mka mks

Video
ID                                       : 1
Format                                   : MPEG-4 Visual
Format profile                           : [email protected]
Format settings, BVOP                    : No
Format settings, QPel                    : No
Format settings, GMC                     : No warppoints
Format settings, Matrix                  : Default (H.263)
Codec ID                                 : V_MS/VFW/FOURCC / XVID
Codec ID/Hint                            : XviD
Duration                                 : 1 h 37 min
Bit rate                                 : 1 597 kb/s
Width                                    : 720 pixels
Height                                   : 392 pixels
Display aspect ratio                     : 1.85:1
Frame rate mode                          : Constant
Frame rate                               : 23.976 FPS
Color space                              : YUV
Chroma subsampling                       : 4:2:0
Bit depth                                : 8 bits
Scan type                                : Progressive
Compression mode                         : Lossy
Bits/(Pixel*Frame)                       : 0.236
Stream size                              : 1.08 GiB (92%)
Title                                    : Yeti Efsanesi - Abominable - 2019 | Filmbol.org
Writing library                          : Lavc58.35.100
Default                                  : Yes
Forced                                   : No

Audio
ID                                       : 2
Format                                   : MPEG Audio
Format version                           : Version 1
Format profile                           : Layer 3
Format settings                          : Joint stereo
Codec ID                                 : A_MPEG/L3
Codec ID/Hint                            : MP3
Duration                                 : 1 h 37 min
Bit rate mode                            : Constant
Bit rate                                 : 128 kb/s
Channel(s)                               : 2 channels
Sampling rate                            : 48.0 kHz
Frame rate                               : 41.667 FPS (1152 SPF)
Compression mode                         : Lossy
Stream size                              : 89.0 MiB (7%)
Title                                    : Yeti Efsanesi - Abominable - 2019 | Filmbol.org
Language                                 : Turkish
Default                                  : Yes

Film Detayları


 Yeti Efsanesi

 Yeti Efsanesi

 Yeti Efsanesi


Film Fragmanı


Film İndir


Rar Şifresi: filmbol.org



Uptobox ile indir

1Fichier ile indir

1Fichier'den İndiremiyor musun? Tıklayın!












Şuan Offine!
Rapor Et!
Şuan Offine!
abdullah06 Uzman Üye
**
Uzman Üye
  • Konular0
  • Mesajlar6
  • Rep puanı 0
teşekkürler
Şuan Online!
Rapor Et!
Şuan Online!
BroserBros Kurucu Admin
*******
Admin
29.05.2021 Yönetici Notu:

Kırık linkler kontrol edildi, kaldırıldı ve yenilendi. Tüm linkler tamamen çalışır durumda.
Şuan Offine!
Rapor Et!
Şuan Offine!
mustysss Eski Premium Üye
***
Eski PR Üye
  • Konular1
  • Mesajlar242
  • Rep puanı 3
mükemmel bi film, teşekkürler...


Hızlı Menü: