⤤ Premium'a Yükselt
Filmbol Forum Film İndir 720P v Suikastçilerin Şifresi (The Assassin's Code) - 2018 - TR+ORG - 720P | tt6170804

Filmbol TV kullanıma açıldı. Bu adresten giriş yapabilirsin: Giriş





Suikastçilerin Şifresi (The Assassin's Code) - 2018 - TR+ORG - 720P | tt6170804
BroserBros
Suikastçilerin Şifresi (The Assassin's Code) - 2018 - TR+ORG - 720P | tt6170804
1
444
  • Derecelendirme: 0/5 - 0 oy
  • 1
  • 2
  • 3
  • 4
  • 5
Konuyu Okuyanlar:2 Ziyaretçi
Şuan Online!
Filmin Yayınlanma Tarihi: 2018 
WWW
Rapor Et!
Şuan Online!
BroserBros Kurucu Admin
*******
Admin



 Suikastçilerin Şifresi



Cleveland polis departmanında göreve başlayan çaylak dedektif Michael, rahmetli babasının gölgesinden çıkmak için çabalamaktadır. Michael’ın babası, o çocukken uyuşturucu skandalından hüküm görmüş bir dedektiftir. Babasının meslekten men edilmesine neden olan skandalı sorma imkanı bulamayan Micheal, hayatını onun gölgesi altında yaşamaktan fazlasıyla bunalmıştır. Şimdi ise babasının gölgesinden kurtulmak ve kendini katılmak için eline büyük bir fırsat geçer. Polisin elinde bulunan 1 milyon değerindeki uyuşturucu çalınıp, üstüne davayı yürüten dedektif ölünce Miacheal davayı almak için amirine yalvarır. Eline geçen fırsatı kaçırmak istemeyen Michael, davayı almayı başarınca hızla çalışmalara başlar. Soruşturma ilerledikçe davanın asıl yüzünü öğrenen Michael, bu süreçte gerçeklerin ortaya çıkmasını önlemeye çalışan suikastçılarla savaşmak zorunda kalır.

Suikastçilerin Şifresi (2018) (The Assassin's Code) | tt6170804 Filmi Imdb'den 1,000 kişi tarafından oylandı ve 5,0 puan aldı. Bu film için editör puanı %45 olarak belirlendi. İyi Seyirler!

Teknik Detaylar

Kod :
General
Unique ID                                : 28340321983405144943266148027631595791 (0x155225C0DD871AA0615B8ADC3502F10F)
Complete name                            : /home/BroserBros/Desktop/8/Suikastçilerin.Şifresi.2018.720p.BluRay.x264.TR.ENG.Filmbol.mkv
Format                                   : Matroska
Format version                           : Version 4
File size                                : 945 MiB
Duration                                 : 1 h 35 min
Overall bit rate                         : 1 378 kb/s
Movie name                               : Suikastçilerin Şifresi - The Assassin's Code - 2018 | Filmbol.org
Encoded date                             : UTC 2021-05-14 15:04:07
Writing application                      : mkvmerge v53.0.0 ('Fool's Gold') 64-bit
Writing library                          : libebml v1.4.1 + libmatroska v1.6.2

Video
ID                                       : 1
Format                                   : AVC
Format/Info                              : Advanced Video Codec
Format profile                           : [email protected]
Format settings                          : CABAC / 4 Ref Frames
Format settings, CABAC                   : Yes
Format settings, Reference frames        : 4 frames
Codec ID                                 : V_MPEG4/ISO/AVC
Duration                                 : 1 h 35 min
Bit rate                                 : 1 050 kb/s
Width                                    : 1 280 pixels
Height                                   : 534 pixels
Display aspect ratio                     : 2.40:1
Original display aspect ratio            : 2.40:1
Frame rate mode                          : Constant
Frame rate                               : 23.976 (24000/1001) FPS
Color space                              : YUV
Chroma subsampling                       : 4:2:0
Bit depth                                : 8 bits
Scan type                                : Progressive
Bits/(Pixel*Frame)                       : 0.064
Stream size                              : 720 MiB (76%)
Title                                    : 720P - Filmbol.org
Writing library                          : x264 core 152
Encoding settings                        : cabac=1 / ref=4 / deblock=1:-1:-1 / analyse=0x3:0x133 / me=umh / subme=9 / psy=1 / psy_rd=1.00:0.15 / mixed_ref=1 / me_range=24 / chroma_me=1 / trellis=2 / 8x8dct=1 / cqm=0 / deadzone=21,11 / fast_pskip=0 / chroma_qp_offset=-3 / threads=12 / lookahead_threads=1 / sliced_threads=0 / nr=0 / decimate=1 / interlaced=0 / bluray_compat=0 / constrained_intra=0 / bframes=3 / b_pyramid=2 / b_adapt=2 / b_bias=0 / direct=3 / weightb=1 / open_gop=0 / weightp=2 / keyint=250 / keyint_min=23 / scenecut=40 / intra_refresh=0 / rc_lookahead=60 / rc=2pass / mbtree=1 / bitrate=1050 / ratetol=1.0 / qcomp=0.60 / qpmin=0 / qpmax=69 / qpstep=4 / cplxblur=20.0 / qblur=0.5 / vbv_maxrate=31250 / vbv_bufsize=31250 / nal_hrd=none / filler=0 / ip_ratio=1.40 / aq=1:1.00
Default                                  : Yes
Forced                                   : No

Audio #1
ID                                       : 2
Format                                   : AC-3
Format/Info                              : Audio Coding 3
Commercial name                          : Dolby Digital
Codec ID                                 : A_AC3
Duration                                 : 1 h 35 min
Bit rate mode                            : Constant
Bit rate                                 : 192 kb/s
Channel(s)                               : 2 channels
Channel layout                           : L R
Sampling rate                            : 48.0 kHz
Frame rate                               : 31.250 FPS (1536 SPF)
Compression mode                         : Lossy
Delay relative to video                  : 24 ms
Stream size                              : 132 MiB (14%)
Title                                    : Türkçe - Filmbol.org
Language                                 : Turkish
Service kind                             : Complete Main
Default                                  : Yes
Forced                                   : No

Audio #2
ID                                       : 3
Format                                   : AAC LC
Format/Info                              : Advanced Audio Codec Low Complexity
Codec ID                                 : A_AAC-2
Duration                                 : 1 h 35 min
Bit rate                                 : 132 kb/s
Channel(s)                               : 2 channels
Channel layout                           : L R
Sampling rate                            : 48.0 kHz
Frame rate                               : 46.875 FPS (1024 SPF)
Compression mode                         : Lossy
Stream size                              : 91.8 MiB (10%)
Title                                    : Orijinal Dil - Filmbol.org
Language                                 : English
Default                                  : No
Forced                                   : No

Film Detayları


 Suikastçilerin Şifresi

 Suikastçilerin Şifresi

 Suikastçilerin Şifresi


Film Fragmanı


Film İndir


Rar Şifresi: filmbol.org


Uptobox ile indir

1Fichier ile indir

1Fichier'den İndiremiyor musun? Tıklayın!












Şuan Online!
Rapor Et!
Şuan Online!
BroserBros Kurucu Admin
*******
Admin
15.05.2021 Yönetici Notu:

Kırık linkler kontrol edildi, kaldırıldı ve yenilendi. Tüm linkler tamamen çalışır durumda.


Hızlı Menü: