⤤ Premium'a Yükselt

Merhaba, Ziyaretçi. Mega linklerinin bir kısmı deaktif halde ve yenileme çalışmalarına başladık. Bu süre içinde ikinci duyuruya kadar mega linklerini raporlamayın!! x

Filmbol Forum Film İndir BRRip XviD v Suikastçilerin Şifresi (The Assassin's Code) - 2018 - TR - BRRip XviD | tt6170804

Filmbol TV kullanıma açıldı. Bu adresten giriş yapabilirsin: Giriş





Suikastçilerin Şifresi (The Assassin's Code) - 2018 - TR - BRRip XviD | tt6170804
BroserBros
Suikastçilerin Şifresi (The Assassin's Code) - 2018 - TR - BRRip XviD | tt6170804
6
628
  • Derecelendirme: 0/5 - 0 oy
  • 1
  • 2
  • 3
  • 4
  • 5
Konuyu Okuyanlar:4 Ziyaretçi
Şuan Online!
Filmin Yayınlanma Tarihi: 2018 
WWW
Rapor Et!
Şuan Online!
BroserBros Kurucu Admin
*******
Admin



 Suikastçilerin Şifresi



Cleveland polis departmanında göreve başlayan çaylak dedektif Michael, rahmetli babasının gölgesinden çıkmak için çabalamaktadır. Michael’ın babası, o çocukken uyuşturucu skandalından hüküm görmüş bir dedektiftir. Babasının meslekten men edilmesine neden olan skandalı sorma imkanı bulamayan Micheal, hayatını onun gölgesi altında yaşamaktan fazlasıyla bunalmıştır. Şimdi ise babasının gölgesinden kurtulmak ve kendini katılmak için eline büyük bir fırsat geçer. Polisin elinde bulunan 1 milyon değerindeki uyuşturucu çalınıp, üstüne davayı yürüten dedektif ölünce Miacheal davayı almak için amirine yalvarır. Eline geçen fırsatı kaçırmak istemeyen Michael, davayı almayı başarınca hızla çalışmalara başlar. Soruşturma ilerledikçe davanın asıl yüzünü öğrenen Michael, bu süreçte gerçeklerin ortaya çıkmasını önlemeye çalışan suikastçılarla savaşmak zorunda kalır.

Suikastçilerin Şifresi (2018) (The Assassin's Code) | tt6170804 Filmi Imdb'den 1,000 kişi tarafından oylandı ve 5,0 puan aldı. Bu film için editör puanı %45 olarak belirlendi. İyi Seyirler!

Teknik Detaylar

Kod :
General
Complete name                            : /home/BroserBros/Desktop/8/Suikastçilerin.Şifresi.2018.BRRip.XviD.TR.Filmbol.avi
Format                                  : AVI
Format/Info                              : Audio Video Interleave
File size                                : 602 MiB
Duration                                : 1 h 35 min
Overall bit rate                        : 877 kb/s

Video
ID                                      : 0
Format                                  : MPEG-4 Visual
Format profile                          : Advanced [email protected]
Format settings                          : BVOP2
Format settings, BVOP                    : 2
Format settings, QPel                    : No
Format settings, GMC                    : No warppoints
Format settings, Matrix                  : Default (H.263)
Codec ID                                : DIVX
Codec ID/Info                            : Project Mayo
Codec ID/Hint                            : DivX 4
Duration                                : 1 h 35 min
Bit rate                                : 736 kb/s
Width                                    : 768 pixels
Height                                  : 320 pixels
Display aspect ratio                    : 2.40:1
Frame rate                              : 23.976 (24000/1001) FPS
Color space                              : YUV
Chroma subsampling                      : 4:2:0
Bit depth                                : 8 bits
Scan type                                : Progressive
Compression mode                        : Lossy
Bits/(Pixel*Frame)                      : 0.125
Stream size                              : 505 MiB (84%)
Writing library                          : XviD 67

Audio
ID                                      : 1
Format                                  : MPEG Audio
Format version                          : Version 1
Format profile                          : Layer 3
Codec ID                                : 55
Codec ID/Hint                            : MP3
Duration                                : 1 h 35 min
Bit rate mode                            : Constant
Bit rate                                : 128 kb/s
Channel(s)                              : 2 channels
Sampling rate                            : 48.0 kHz
Compression mode                        : Lossy
Stream size                              : 87.8 MiB (15%)
Alignment                                : Aligned on interleaves
Interleave, duration                    : 24  ms (0.58 video frame)

Film Detayları


 Suikastçilerin Şifresi

 Suikastçilerin Şifresi

 Suikastçilerin Şifresi


Film Fragmanı


Film İndir


Rar Şifresi: filmbol.org



Uptobox ile indir

1Fichier ile indir

1Fichier'den İndiremiyor musun? Tıklayın!












Şuan Offine!
Rapor Et!
Şuan Offine!
cemsav97 Süper Üye
***
Super Üye
  • Konular0
  • Mesajlar78
  • Rep puanı 2
Güzel
Şuan Online!
Rapor Et!
Şuan Online!
BroserBros Kurucu Admin
*******
Admin
15.05.2021 Yönetici Notu:

Kırık linkler kontrol edildi, kaldırıldı ve yenilendi. Tüm linkler tamamen çalışır durumda.
Şuan Offine!
Rapor Et!
Şuan Offine!
Furkan61 Cezalı Üye
  • Konular0
  • Mesajlar288
teşekkürler
Şuan Offine!
Rapor Et!
Şuan Offine!
Furkan61 Cezalı Üye
  • Konular0
  • Mesajlar288
ses kayması sorunu var düzeltirseniz seviniirm
Şuan Online!
Rapor Et!
Şuan Online!
BroserBros Kurucu Admin
*******
Admin
(15-05-2021, Saat: 17:52)Furkan61 Adlı Kullanıcıdan Alıntı: ses kayması sorunu var düzeltirseniz seviniirm

Bilgi için teşekkürler @Furkan61. Tüm sürümler test edildi ve sadece XviD sürümünde ses kayması sorunu  tespit edildi. Sorun düzeltildi ve linkler yenilendi.
Şuan Offine!
Rapor Et!
Şuan Offine!
Film TV Üye
*
Üye
  • Konular0
  • Mesajlar1
  • Rep puanı 0
teşekkürler


Hızlı Menü: