⤤ Premium'a Yükselt

Merhaba, Ziyaretçi. Mega linklerinin bir kısmı deaktif halde ve yenileme çalışmalarına başladık. Bu süre içinde ikinci duyuruya kadar mega linklerini raporlamayın!! x

Filmbol Forum Film İndir 720P v Kaçış Planı 3 (Escape Plan: The Extractors) - 2019 - TR+ORG - 720P | tt6772804

Filmbol TV kullanıma açıldı. Bu adresten giriş yapabilirsin: Giriş





Kaçış Planı 3 (Escape Plan: The Extractors) - 2019 - TR+ORG - 720P | tt6772804
BroserBros
Kaçış Planı 3 (Escape Plan: The Extractors) - 2019 - TR+ORG - 720P | tt6772804
3
623
  • Derecelendirme: 0/5 - 0 oy
  • 1
  • 2
  • 3
  • 4
  • 5
Konuyu Okuyanlar:3 Ziyaretçi
Şuan Online!
Filmin Yayınlanma Tarihi: 2019 
WWW
Rapor Et!
Şuan Online!
BroserBros Kurucu Admin
*******
Admin



 Kaçış Planı 3



Kaçış Planı 3, düşmanlarıyla yüzleşmek ve zaman dolmadan rehineleri kurtarmak için ölümcül bir kurtarma görevine girişen Breslin ve ekibinin hikayesini konu ediyor. Hong Kong temelli bir teknoloji güvenlik şirketinin uzmanlığı yürüten bir adamın kızı kaçırılmıştır. Standart bir fidye isteme durumu gibi görünmektedir. Kızın sağ salim geri getirilmesi için güvenlik uzmanı Ray Breslin ve ekibinin yardımına başvurulur. Breslin ve ekibi kaçırılma hakkında daha derine indikçe suçluların eski düşmanlarından birinin acımasız oğlu olduğunu keşfederler. Kaçırılan kızın, “Şeytan’ın İstasyonu” olarak bilinen, devasa ve zorlu bir Letonya hapishanesinden kurtarılması gerekmektedir. Ancak ekip işi aldıktan sonra Breslin’in kız arkadaşı da kaçırılıp aynı hapishaneye götürülür. Şimdi Breslin ve ekibi sadist düşmanlarıyla yüzleşmek ve zaman dolmadan rehineleri kurtarmak için ölümcül bir kurtarma görevine girişmelidir…

Kaçış Planı 3 (2019) (Escape Plan: The Extractors) | tt6772804 Filmi Imdb'den 13,000 kişi tarafından oylandı ve 4,4 puan aldı. Bu film için editör puanı %58 olarak belirlendi. İyi Seyirler!

Teknik Detaylar

Kod :
General
Unique ID                                : 132073402304561121311100271915128054177 (0x635C697B29595347473B4490EF43E1A1)
Complete name                            : /home/BroserBros/Desktop/2/Kaçış.Planı.3.2019.720p.BluRay.x264.TR.ENG.Filmbol.mkv
Format                                   : Matroska
Format version                           : Version 4
File size                                : 1.08 GiB
Duration                                 : 1 h 37 min
Overall bit rate                         : 1 584 kb/s
Movie name                               : Kaçış Planı 3 - Escape Plan: The Extractors - 2019 | Filmbol.org
Encoded date                             : UTC 2021-05-31 15:06:06
Writing application                      : mkvmerge v53.0.0 ('Fool's Gold') 64-bit
Writing library                          : libebml v1.4.1 + libmatroska v1.6.2

Video
ID                                       : 1
Format                                   : AVC
Format/Info                              : Advanced Video Codec
Format profile                           : [email protected]
Format settings                          : CABAC / 2 Ref Frames
Format settings, CABAC                   : Yes
Format settings, Reference frames        : 2 frames
Format settings, GOP                     : N=1
Codec ID                                 : V_MPEG4/ISO/AVC
Duration                                 : 1 h 37 min
Bit rate                                 : 1 198 kb/s
Width                                    : 1 280 pixels
Height                                   : 534 pixels
Display aspect ratio                     : 2.40:1
Frame rate mode                          : Constant
Frame rate                               : 23.976 (24000/1001) FPS
Color space                              : YUV
Chroma subsampling                       : 4:2:0
Bit depth                                : 8 bits
Scan type                                : Progressive
Bits/(Pixel*Frame)                       : 0.073
Stream size                              : 834 MiB (76%)
Title                                    : Kaçış Planı 3 - Escape Plan: The Extractors - 2019 | Filmbol.org
Default                                  : Yes
Forced                                   : No

Audio #1
ID                                       : 2
Format                                   : AC-3
Format/Info                              : Audio Coding 3
Commercial name                          : Dolby Digital
Codec ID                                 : A_AC3
Duration                                 : 1 h 37 min
Bit rate mode                            : Constant
Bit rate                                 : 192 kb/s
Channel(s)                               : 2 channels
Channel layout                           : L R
Sampling rate                            : 48.0 kHz
Frame rate                               : 31.250 FPS (1536 SPF)
Compression mode                         : Lossy
Stream size                              : 134 MiB (12%)
Title                                    : Kaçış Planı 3 - Escape Plan: The Extractors - 2019 | Filmbol.org
Language                                 : Turkish
Service kind                             : Complete Main
Default                                  : Yes
Forced                                   : No

Audio #2
ID                                       : 3
Format                                   : AC-3
Format/Info                              : Audio Coding 3
Commercial name                          : Dolby Digital
Codec ID                                 : A_AC3
Duration                                 : 1 h 37 min
Bit rate mode                            : Constant
Bit rate                                 : 192 kb/s
Channel(s)                               : 2 channels
Channel layout                           : L R
Sampling rate                            : 48.0 kHz
Frame rate                               : 31.250 FPS (1536 SPF)
Compression mode                         : Lossy
Stream size                              : 134 MiB (12%)
Title                                    : Kaçış Planı 3 - Escape Plan: The Extractors - 2019 | Filmbol.org
Language                                 : English
Service kind                             : Complete Main
Default                                  : No
Forced                                   : No

Text
ID                                       : 4
Format                                   : UTF-8
Codec ID                                 : S_TEXT/UTF8
Codec ID/Info                            : UTF-8 Plain Text
Duration                                 : 1 h 22 min
Bit rate                                 : 36 b/s
Count of elements                        : 732
Stream size                              : 21.8 KiB (0%)
Title                                    : Kaçış Planı 3 - Escape Plan: The Extractors - 2019 | Filmbol.org
Language                                 : Turkish
Default                                  : No
Forced                                   : No

Film Detayları


 Kaçış Planı 3

 Kaçış Planı 3

 Kaçış Planı 3


Film Fragmanı


Film İndir


Rar Şifresi: filmbol.org


Uptobox ile indir

1Fichier ile indir

1Fichier'den İndiremiyor musun? Tıklayın!












Şuan Offine!
Rapor Et!
Şuan Offine!
ruby Üye
*
Üye
  • Konular0
  • Mesajlar4
  • Rep puanı 0
teşekkürler
Şuan Online!
Rapor Et!
Şuan Online!
BroserBros Kurucu Admin
*******
Admin
01.06.2021 Yönetici Notu:

Kırık linkler kontrol edildi, kaldırıldı ve yenilendi. Tüm linkler tamamen çalışır durumda.
Şuan Online!
Rapor Et!
Şuan Online!
myzrail Üye
*
Üye
  • Konular0
  • Mesajlar388
  • Rep puanı 0
eline saglık


Hızlı Menü: