⤤ Premium'a Yükselt

Merhaba, Ziyaretçi. Mega linklerinin bir kısmı deaktif halde ve yenileme çalışmalarına başladık. Bu süre içinde ikinci duyuruya kadar mega linklerini raporlamayın!! x

Filmbol Forum Film İndir BRRip XviD v Kaçış Planı 3 (Escape Plan: The Extractors) - 2019 - TR - BRRip XviD | tt6772804

Filmbol TV kullanıma açıldı. Bu adresten giriş yapabilirsin: Giriş





Kaçış Planı 3 (Escape Plan: The Extractors) - 2019 - TR - BRRip XviD | tt6772804
BroserBros
Kaçış Planı 3 (Escape Plan: The Extractors) - 2019 - TR - BRRip XviD | tt6772804
3
525
  • Derecelendirme: 0/5 - 0 oy
  • 1
  • 2
  • 3
  • 4
  • 5
Konuyu Okuyanlar:2 Ziyaretçi
Şuan Online!
Filmin Yayınlanma Tarihi: 2019 
WWW
Rapor Et!
Şuan Online!
BroserBros Kurucu Admin
*******
Admin



 Kaçış Planı 3



Kaçış Planı 3, düşmanlarıyla yüzleşmek ve zaman dolmadan rehineleri kurtarmak için ölümcül bir kurtarma görevine girişen Breslin ve ekibinin hikayesini konu ediyor. Hong Kong temelli bir teknoloji güvenlik şirketinin uzmanlığı yürüten bir adamın kızı kaçırılmıştır. Standart bir fidye isteme durumu gibi görünmektedir. Kızın sağ salim geri getirilmesi için güvenlik uzmanı Ray Breslin ve ekibinin yardımına başvurulur. Breslin ve ekibi kaçırılma hakkında daha derine indikçe suçluların eski düşmanlarından birinin acımasız oğlu olduğunu keşfederler. Kaçırılan kızın, “Şeytan’ın İstasyonu” olarak bilinen, devasa ve zorlu bir Letonya hapishanesinden kurtarılması gerekmektedir. Ancak ekip işi aldıktan sonra Breslin’in kız arkadaşı da kaçırılıp aynı hapishaneye götürülür. Şimdi Breslin ve ekibi sadist düşmanlarıyla yüzleşmek ve zaman dolmadan rehineleri kurtarmak için ölümcül bir kurtarma görevine girişmelidir…

Kaçış Planı 3 (2019) (Escape Plan: The Extractors) | tt6772804 Filmi Imdb'den 13,000 kişi tarafından oylandı ve 4,4 puan aldı. Bu film için editör puanı %58 olarak belirlendi. İyi Seyirler!

Teknik Detaylar

Kod :
General
Unique ID                                : 60385441982651911477335072386243760549 (0x2D6DD026CB2F5274C9AC4EAE17CE11A5)
Complete name                            : /home/BroserBros/Desktop/2/Kaçış.Planı.3.2019.BRRip.XviD.TR.Filmbol.avi
Format                                   : Matroska
Format version                           : Version 4
File size                                : 1.24 GiB
Duration                                 : 1 h 37 min
Overall bit rate                         : 1 821 kb/s
Movie name                               : Kaçış Planı 3 - Escape Plan: The Extractors - 2019 | Filmbol.org
Encoded date                             : UTC 2021-05-31 15:09:30
Writing application                      : mkvmerge v53.0.0 ('Fool's Gold') 64-bit
Writing library                          : libebml v1.4.1 + libmatroska v1.6.2
FileExtension_Invalid                    : mkv mk3d mka mks

Video
ID                                       : 1
Format                                   : MPEG-4 Visual
Format profile                           : Advanced [email protected]
Format settings                          : BVOP1 / Custom Matrix
Format settings, BVOP                    : 1
Format settings, QPel                    : No
Format settings, GMC                     : No warppoints
Format settings, Matrix                  : Custom
Codec ID                                 : V_MS/VFW/FOURCC / XVID
Codec ID/Hint                            : XviD
Duration                                 : 1 h 37 min
Bit rate                                 : 1 692 kb/s
Width                                    : 720 pixels
Height                                   : 304 pixels
Display aspect ratio                     : 2.35:1
Frame rate mode                          : Constant
Frame rate                               : 23.976 (23976/1000) FPS
Original frame rate                      : 23.976 (24000/1001) FPS
Color space                              : YUV
Chroma subsampling                       : 4:2:0
Bit depth                                : 8 bits
Scan type                                : Progressive
Compression mode                         : Lossy
Bits/(Pixel*Frame)                       : 0.322
Stream size                              : 1.15 GiB (93%)
Title                                    : Kaçış Planı 3 - Escape Plan: The Extractors - 2019 | Filmbol.org
Writing library                          : XviD 73
Default                                  : Yes
Forced                                   : No

Audio
ID                                       : 2
Format                                   : MPEG Audio
Format version                           : Version 1
Format profile                           : Layer 3
Format settings                          : Joint stereo / MS Stereo
Codec ID                                 : A_MPEG/L3
Codec ID/Hint                            : MP3
Duration                                 : 1 h 37 min
Bit rate mode                            : Constant
Bit rate                                 : 128 kb/s
Channel(s)                               : 2 channels
Sampling rate                            : 48.0 kHz
Frame rate                               : 41.667 FPS (1152 SPF)
Compression mode                         : Lossy
Stream size                              : 89.0 MiB (7%)
Title                                    : Kaçış Planı 3 - Escape Plan: The Extractors - 2019 | Filmbol.org
Language                                 : Turkish
Default                                  : Yes
Forced                                   : No

Film Detayları


 Kaçış Planı 3

 Kaçış Planı 3

 Kaçış Planı 3


Film Fragmanı


Film İndir


Rar Şifresi: filmbol.org



Uptobox ile indir

1Fichier ile indir

1Fichier'den İndiremiyor musun? Tıklayın!












Şuan Offine!
Rapor Et!
Şuan Offine!
palalo Uzman Üye
**
Uzman Üye
  • Konular0
  • Mesajlar14
  • Rep puanı 0
teşekkürler
Şuan Online!
Rapor Et!
Şuan Online!
BroserBros Kurucu Admin
*******
Admin
01.06.2021 Yönetici Notu:

Kırık linkler kontrol edildi, kaldırıldı ve yenilendi. Tüm linkler tamamen çalışır durumda.
Şuan Offine!
Rapor Et!
Şuan Offine!
Casablanca Üye
*
Üye
  • Konular0
  • Mesajlar110
  • Rep puanı 0
Teşekkür ederim


Hızlı Menü: