⤤ Premium'a Yükselt
Filmbol Forum Film İndir 1080P v Uçak Modu (Airplane Mode) - 2020 - TR+ORG - 1080P | tt10731748

Filmbol TV kullanıma açıldı. Bu adresten giriş yapabilirsin: Giriş





Uçak Modu (Airplane Mode) - 2020 - TR+ORG - 1080P | tt10731748
BroserBros
Uçak Modu (Airplane Mode) - 2020 - TR+ORG - 1080P | tt10731748
1
952
  • Derecelendirme: 0/5 - 0 oy
  • 1
  • 2
  • 3
  • 4
  • 5
Konuyu Okuyanlar:2 Ziyaretçi
Şuan Online!
Filmin Yayınlanma Tarihi: 2020 
WWW
Rapor Et!
Şuan Online!
BroserBros Kurucu Admin
*******
Admin



 Uçak Modu



Sosyal medya fenomeni ve hayali moda tasarımcısı olan genç bir kız, bir trafik kazası geçirir ve bu durum onun fenomenlik kariyerini zorlayabilir. Tabii ki moda tasarımcısı da olmak onun için artık zor hale gelmiştir çünkü Ana kazadan sonra ailesi tarafından büyükbabasının yanına, köye gönderilir.

Uçak Modu (2020) (Airplane Mode) | tt10731748 Filmi Imdb'den 3,000 kişi tarafından oylandı ve 5,0 puan aldı. Bu film için editör puanı %61 olarak belirlendi. İyi Seyirler!

Teknik Detaylar

Kod :
General
Unique ID                                : 91550910798485849986496788822938562005 (0x44E01065DC5F1F13D5E8C4E0246B2DD5)
Complete name                            : /home/BroserBros/Desktop/2/Uçak.Modu.2020.1080p.BluRay.x264.TR.ENG.Filmbol.mkv
Format                                   : Matroska
Format version                           : Version 4
File size                                : 1.73 GiB
Duration                                 : 1 h 36 min
Overall bit rate                         : 2 566 kb/s
Movie name                               : Uçak Modu - Airplane Mode - 2020 | Filmbol.org
Encoded date                             : UTC 2021-05-28 12:17:44
Writing application                      : mkvmerge v53.0.0 ('Fool's Gold') 64-bit
Writing library                          : libebml v1.4.1 + libmatroska v1.6.2

Video
ID                                       : 1
Format                                   : AVC
Format/Info                              : Advanced Video Codec
Format profile                           : [email protected]
Format settings                          : CABAC / 2 Ref Frames
Format settings, CABAC                   : Yes
Format settings, Reference frames        : 2 frames
Codec ID                                 : V_MPEG4/ISO/AVC
Duration                                 : 1 h 36 min
Bit rate                                 : 1 988 kb/s
Width                                    : 1 920 pixels
Height                                   : 1 080 pixels
Display aspect ratio                     : 16:9
Frame rate mode                          : Constant
Frame rate                               : 24.000 FPS
Color space                              : YUV
Chroma subsampling                       : 4:2:0
Bit depth                                : 8 bits
Scan type                                : Progressive
Bits/(Pixel*Frame)                       : 0.040
Stream size                              : 1.34 GiB (77%)
Title                                    : Uçak Modu - Airplane Mode - 2020 | Filmbol.org
Default                                  : Yes
Forced                                   : No

Audio #1
ID                                       : 2
Format                                   : AC-3
Format/Info                              : Audio Coding 3
Commercial name                          : Dolby Digital
Codec ID                                 : A_AC3
Duration                                 : 1 h 36 min
Bit rate mode                            : Constant
Bit rate                                 : 384 kb/s
Channel(s)                               : 6 channels
Channel layout                           : L R C LFE Ls Rs
Sampling rate                            : 48.0 kHz
Frame rate                               : 31.250 FPS (1536 SPF)
Compression mode                         : Lossy
Stream size                              : 265 MiB (15%)
Title                                    : Uçak Modu - Airplane Mode - 2020 | Filmbol.org
Language                                 : Turkish
Service kind                             : Complete Main
Default                                  : Yes
Forced                                   : No

Audio #2
ID                                       : 3
Format                                   : AC-3
Format/Info                              : Audio Coding 3
Commercial name                          : Dolby Digital
Codec ID                                 : A_AC3
Duration                                 : 1 h 36 min
Bit rate mode                            : Constant
Bit rate                                 : 192 kb/s
Channel(s)                               : 2 channels
Channel layout                           : L R
Sampling rate                            : 48.0 kHz
Frame rate                               : 31.250 FPS (1536 SPF)
Compression mode                         : Lossy
Stream size                              : 133 MiB (7%)
Title                                    : Uçak Modu - Airplane Mode - 2020 | Filmbol.org
Language                                 : Portuguese
Service kind                             : Complete Main
Default                                  : No
Forced                                   : No

Text #1
ID                                       : 4
Format                                   : UTF-8
Codec ID                                 : S_TEXT/UTF8
Codec ID/Info                            : UTF-8 Plain Text
Duration                                 : 1 h 35 min
Bit rate                                 : 55 b/s
Count of elements                        : 1226
Stream size                              : 38.7 KiB (0%)
Title                                    : Uçak Modu - Airplane Mode - 2020 | Filmbol.org
Language                                 : Turkish
Default                                  : No
Forced                                   : No

Text #2
ID                                       : 5
Format                                   : UTF-8
Codec ID                                 : S_TEXT/UTF8
Codec ID/Info                            : UTF-8 Plain Text
Duration                                 : 1 h 30 min
Bit rate                                 : 5 b/s
Count of elements                        : 120
Stream size                              : 3.37 KiB (0%)
Title                                    : Uçak Modu - Airplane Mode - 2020 | Filmbol.org
Language                                 : Turkish
Default                                  : Yes
Forced                                   : Yes

Film Detayları


 Uçak Modu

 Uçak Modu

 Uçak Modu


Film Fragmanı


Film İndir


Rar Şifresi: filmbol.org


Uptobox ile indir

1Fichier ile indir

1Fichier'den İndiremiyor musun? Tıklayın!












Şuan Online!
Rapor Et!
Şuan Online!
BroserBros Kurucu Admin
*******
Admin
29.05.2021 Yönetici Notu:

Kırık linkler kontrol edildi, kaldırıldı ve yenilendi. Tüm linkler tamamen çalışır durumda.


Hızlı Menü: